<?xml version="1.0" standalone="no"?>
<!DOCTYPE svg PUBLIC "-//W3C//DTD SVG 1.1//EN" "http://www.w3.org/Graphics/SVG/1.1/DTD/svg11.dtd" >
<svg xmlns="http://www.w3.org/2000/svg">
<metadata></metadata>
<defs>
<font id="museo_slab100" horiz-adv-x="1691" >
<font-face units-per-em="2048" ascent="1536" descent="-512" />
<missing-glyph horiz-adv-x="512" />
<glyph unicode="&#xfb01;" horiz-adv-x="1247" d="M82 944v80h194v55q0 66 12 121t31.5 91.5t47 64.5t54.5 43.5t58 25t54.5 12.5t46.5 3q39 0 53 -2l20 -4v-80l-18 4q-14 2 -49 2q-27 0 -52.5 -5t-58 -22.5t-56.5 -46t-40.5 -81.5t-16.5 -124v-57h648v-944h184v-80h-455v80h185v864h-562v-864h216v-80h-486v80h184v864 h-194zM911 1284v150h111v-150h-111z" />
<glyph unicode="&#xfb02;" horiz-adv-x="1198" d="M82 944v80h194v37q0 93 25.5 164.5t64.5 114.5t93 70.5t105 37.5t106 10q111 0 213 -20q44 -9 80 -21v-1184q0 -34 4.5 -59t17.5 -49t40.5 -36.5t68.5 -12.5q28 0 34 2t17 2l-2 -80q-17 0 -23 -2q-14 -2 -45 -2q-100 0 -149 54.5t-49 174.5v1129l-48 12q-66 12 -155 12 q-46 0 -87 -8.5t-83.5 -30.5t-73 -56t-49.5 -90.5t-19 -129.5v-39h273v-80h-273v-864h216v-80h-486v80h184v864h-194z" />
<glyph unicode="&#xfb03;" horiz-adv-x="1894" d="M82 944v80h194v55q0 66 12 121t31.5 91.5t47 64.5t54.5 43.5t58 25t54.5 12.5t46.5 3q39 0 53 -2l20 -4v-80l-18 4q-14 2 -49 2q-27 0 -52.5 -5t-58 -22.5t-56.5 -46t-40.5 -81.5t-16.5 -124v-57h562v55q0 92 23 161t56 106t77.5 59.5t78.5 28.5t68 6q39 0 53 -2l20 -4 v-80l-18 4q-14 2 -49 2q-27 0 -52 -5t-58 -22.5t-56.5 -46t-40 -81.5t-16.5 -124v-57h647v-944h184v-80h-455v80h185v864h-561v-864h215v-80h-486v80h185v864h-562v-864h216v-80h-486v80h184v864h-194zM1559 1284v150h110v-150h-110z" />
<glyph unicode="&#xfb04;" horiz-adv-x="1845" d="M82 944v80h194v55q0 77 15.5 138t42.5 99t58 64t68 38.5t66 17t58 4.5q35 0 49 -2l20 -4v-80l-18 4q-14 2 -45 2q-27 0 -53 -5t-59.5 -22.5t-57.5 -46t-41 -81.5t-17 -124v-57h562v37q0 93 25 164.5t64.5 114.5t93 70.5t104.5 37.5t106 10q111 0 213 -20q44 -9 80 -21 v-1184q0 -34 4.5 -59t17.5 -49t40.5 -36.5t68.5 -12.5q29 0 35 2t16 2l-2 -80q-17 0 -23 -2q-14 -2 -45 -2q-100 0 -149 54.5t-49 174.5v1129l-47 12q-66 12 -156 12q-46 0 -87 -8.5t-83 -30.5t-72.5 -56t-49.5 -90.5t-19 -129.5v-39h272v-80h-272v-864h215v-80h-486v80h185 v864h-562v-864h216v-80h-486v80h184v864h-194z" />
<glyph horiz-adv-x="0" />
<glyph horiz-adv-x="682" />
<glyph unicode=" "  horiz-adv-x="512" />
<glyph unicode="&#x09;" horiz-adv-x="512" />
<glyph unicode="&#xa0;" horiz-adv-x="512" />
<glyph unicode="!" horiz-adv-x="448" d="M166 0v125h121v-125h-121zM180 358v1076h88v-1076h-88z" />
<glyph unicode="&#x22;" horiz-adv-x="600" d="M150 1061v391h88v-391h-88zM362 1061v391h89v-391h-89z" />
<glyph unicode="#" horiz-adv-x="1488" d="M100 408l15 81h311l80 453h-311l14 82h311l72 410h88l-72 -410h387l72 410h88l-72 -410h306l-15 -82h-305l-80 -453h305l-14 -81h-305l-72 -408h-88l72 408h-387l-72 -408h-88l72 408h-312zM514 489h387l80 453h-387z" />
<glyph unicode="$" horiz-adv-x="1054" d="M100 184l60 68q50 -46 102 -80q129 -80 281 -80q137 0 228 78.5t91 204.5q0 57 -25.5 103t-68 78.5t-98 59.5t-116.5 51.5t-122.5 49.5t-117 58t-98 73t-68 98.5t-25.5 130.5q0 133 103 231t270 115v226h88v-224q145 -8 247 -67q47 -24 87 -64l-48 -73q-38 35 -86 61 q-105 59 -229 59q-154 0 -247 -76.5t-93 -185.5q0 -60 25.5 -108.5t68 -82t98 -61.5t116.5 -52t122.5 -48.5t117 -56t98 -70t68 -95t25.5 -126.5q0 -150 -101 -254.5t-269 -116.5v-221h-88v221q-160 10 -293 94q-66 42 -103 82z" />
<glyph unicode="%" horiz-adv-x="1400" d="M106 0l1088 1434h106l-1087 -1434h-107zM111 1190q0 110 78 189t188 79t189 -79t79 -189t-79 -188t-189 -78t-188 78t-78 188zM199 1190q0 -79 50.5 -131.5t127.5 -52.5q78 0 129 53t51 131q0 79 -51.5 132.5t-128.5 53.5t-127.5 -53.5t-50.5 -132.5zM758 242 q0 110 78 189t188 79t189 -79t79 -189t-79 -188.5t-189 -78.5t-188 78.5t-78 188.5zM846 242q0 -79 50.5 -132t127.5 -53q78 0 129 53t51 132t-51.5 132.5t-128.5 53.5t-127.5 -53.5t-50.5 -132.5z" />
<glyph unicode="&#x26;" horiz-adv-x="1347" d="M123 391q0 132 71.5 241t198.5 144v4q-49 17 -102 64q-105 97 -105 258q0 158 117 257t322 99q40 0 98 -10q37 -8 53 -10l-28 -78l-46 8q-36 8 -84 8q-148 0 -243.5 -73.5t-95.5 -198.5q0 -36 6 -69.5t28.5 -75.5t59 -72t104.5 -51t158 -21h369v209h88v-209h198v-82h-198 v-229q0 -265 -128 -397t-350 -132q-215 0 -353 118t-138 298zM215 395q0 -143 107 -238.5t292 -95.5q182 0 286 106t104 337v229h-371q-208 0 -313 -91t-105 -247z" />
<glyph unicode="'" horiz-adv-x="387" d="M150 1061v391h88v-391h-88z" />
<glyph unicode="(" horiz-adv-x="587" d="M164 686q0 427 225 799h90q-231 -390 -231 -801q0 -476 231 -879h-90q-106 188 -165.5 416t-59.5 465z" />
<glyph unicode=")" horiz-adv-x="589" d="M111 -195q231 403 231 879q0 411 -231 801h90q225 -372 225 -799q0 -237 -59.5 -465t-165.5 -416h-90z" />
<glyph unicode="*" horiz-adv-x="974" d="M104 1122l27 86l318 -110l-11 336h97l-11 -336l320 108l28 -84l-321 -96v-4l201 -266l-72 -54l-191 275h-4l-190 -272l-74 51l203 266v4z" />
<glyph unicode="+" horiz-adv-x="1228" d="M86 539v82h485v538h88v-538h484v-82h-484v-539h-88v539h-485z" />
<glyph unicode="," horiz-adv-x="493" d="M61 -274l138 399h114l-166 -399h-86z" />
<glyph unicode="-" horiz-adv-x="1081" d="M258 539v82h565v-82h-565z" />
<glyph unicode="." horiz-adv-x="485" d="M180 0v129h125v-129h-125z" />
<glyph unicode="/" horiz-adv-x="806" d="M100 -86l518 1602h91l-519 -1602h-90z" />
<glyph unicode="0" horiz-adv-x="1257" d="M145 717q0 129 15 237t50.5 203t90 160.5t138 103t190.5 37.5t190 -37.5t138 -103t90 -160.5t50 -203t15 -237t-15 -237t-50 -203.5t-90 -161t-138 -103t-190 -37.5q-133 0 -229 56.5t-150.5 160t-79.5 233t-25 292.5zM238 717q0 -117 11 -211.5t39 -179.5t71.5 -142.5 t112 -91t157.5 -33.5t157.5 33.5t112 91t71.5 142.5t39 179.5t11 211.5q0 116 -11 210.5t-39 179.5t-71.5 142.5t-112 91t-157.5 33.5t-157.5 -33.5t-112 -91t-71.5 -142.5t-39 -179.5t-11 -210.5z" />
<glyph unicode="1" horiz-adv-x="876" d="M100 0v82h326v1167q0 9 1 26t1 23v23h-4q-1 -4 -14 -21q-5 -5 -24.5 -27t-37.5 -40l-170 -170l-61 59l309 312h88v-1352h317v-82h-731z" />
<glyph unicode="2" horiz-adv-x="1165" d="M117 76q0 80 26 150.5t70.5 125.5t101.5 105t120.5 94t127 86.5t120.5 89t101.5 95.5t70.5 111.5t26 131.5q0 132 -92 220.5t-242 88.5q-142 0 -260 -102q-55 -48 -88 -105l-66 45q39 69 100 123q133 123 316 123q103 0 185 -32.5t133.5 -87.5t78.5 -125t27 -148 q0 -79 -26 -149t-70 -124t-101.5 -103.5t-120.5 -93t-126 -86.5t-120.5 -89t-101.5 -95t-70 -111.5t-26 -131.5h750v207h86v-289h-924q-6 40 -6 76z" />
<glyph unicode="3" horiz-adv-x="1128" d="M98 174l66 66q41 -47 104 -90q132 -91 281 -91q91 0 172.5 44t133.5 126.5t52 184.5q0 80 -32.5 146t-86.5 108t-122 65t-142 23q-49 0 -67 -2q-10 -2 -29 -2l-27 65l422 494q11 13 29 28q12 11 16 13v4q-16 0 -22 -2q-14 -2 -39 -2h-555v-207h-86v289h823v-62l-463 -534 q57 0 116 -11t124.5 -41.5t116 -76t83.5 -122t33 -173.5q0 -183 -133.5 -311t-320.5 -128q-161 0 -326 101q-72 47 -121 98z" />
<glyph unicode="4" horiz-adv-x="1177" d="M61 410v61l744 963h82v-942h213v-82h-213v-410h-88v410h-738zM184 492h615v722q0 28 4 56q2 8 2 24h-4q-3 -10 -13 -20q-14 -24 -32 -45l-572 -733v-4z" />
<glyph unicode="5" horiz-adv-x="1124" d="M106 162l68 59q37 -46 84 -80q114 -82 258 -82q165 0 281 111.5t116 261.5q0 175 -110 280t-281 105q-108 0 -203 -43q-36 -16 -81 -45l-66 23l82 682h666v-289h-86v207h-502l-56 -459l-8 -39l-4 -18h4q35 18 72 32q97 33 186 33q203 0 341.5 -132t138.5 -325 q0 -194 -143.5 -331.5t-348.5 -137.5q-170 0 -307 95q-64 45 -101 92z" />
<glyph unicode="6" horiz-adv-x="1193" d="M137 645q0 109 21 219t69.5 218t118 191t175.5 134t233 51q86 0 180 -28q29 -9 70 -29l-43 -80q-30 16 -60 27q-72 26 -151 26q-97 0 -180.5 -38.5t-142 -103t-101.5 -151t-66.5 -179t-30.5 -189.5h4q60 92 169 144t237 52q192 0 316 -125t124 -331q0 -113 -35.5 -205 t-96 -151t-140 -90.5t-168.5 -31.5q-154 0 -269.5 91.5t-174 242.5t-58.5 336zM238 539q0 -76 28.5 -159t78 -155t127 -119t165.5 -47q162 0 256 110t94 284q0 170 -97.5 271t-254.5 101q-159 0 -278 -92t-119 -194z" />
<glyph unicode="7" horiz-adv-x="1069" d="M88 1145v289h940v-62l-680 -1372h-92l635 1294l24 43l11 15v4q-15 0 -21 -2q-14 -2 -47 -2h-684v-207h-86z" />
<glyph unicode="8" horiz-adv-x="1208" d="M133 401q0 73 23.5 141t54.5 112t70 81.5t62 53.5t38 24q-191 116 -191 293q0 149 111 250.5t313 101.5q194 0 309 -100t115 -262q0 -62 -18.5 -126t-41 -106.5t-55 -86.5t-45 -57.5t-26.5 -27.5q104 -57 160.5 -129.5t56.5 -179.5q0 -169 -134.5 -288.5t-326.5 -119.5 q-90 0 -174.5 29t-152 82t-108 135t-40.5 180zM225 406q0 -101 56 -182t142 -123t181 -42q146 0 259.5 91.5t113.5 222.5q0 46 -14 84.5t-44 70t-63 56t-84.5 49.5t-94 43.5t-106.5 45.5t-108 48q-238 -149 -238 -364zM283 1108q0 -39 12.5 -73t31.5 -60.5t51.5 -52.5 t63 -44.5t76 -40t80 -35.5t86.5 -35.5t84 -35.5q13 9 38.5 38t58.5 76.5t57 114.5t24 132q0 129 -93 205.5t-241 76.5q-150 0 -239.5 -76.5t-89.5 -189.5z" />
<glyph unicode="9" horiz-adv-x="1193" d="M115 981q0 113 35.5 205t96 150.5t140 90t168.5 31.5q154 0 269.5 -91.5t174 -242.5t58.5 -336q0 -109 -21 -219t-69.5 -218t-118 -191t-175.5 -134t-233 -51q-83 0 -180 29q-29 9 -70 29l43 80q30 -16 60 -27q75 -27 151 -27q97 0 180.5 39t142 103.5t101.5 150.5 t66.5 179t30.5 190h-4q-62 -87 -171.5 -139t-234.5 -52q-191 0 -315.5 124.5t-124.5 326.5zM207 981q0 -166 98 -266.5t254 -100.5q80 0 155 26t127 66.5t83.5 90.5t31.5 98q0 60 -17.5 126t-52.5 128.5t-82 113t-111.5 81t-135.5 30.5q-162 0 -256 -109.5t-94 -283.5z" />
<glyph unicode=":" horiz-adv-x="620" d="M248 0v129h125v-129h-125zM248 895v129h125v-129h-125z" />
<glyph unicode=";" horiz-adv-x="626" d="M145 -274l117 399h115l-146 -399h-86zM250 895v129h125v-129h-125z" />
<glyph unicode="&#x3c;" horiz-adv-x="1228" d="M141 543v73l899 404v-98l-772 -340v-4l772 -340v-99z" />
<glyph unicode="=" horiz-adv-x="1228" d="M147 375v82h934v-82h-934zM147 702v82h934v-82h-934z" />
<glyph unicode="&#x3e;" horiz-adv-x="1228" d="M186 139v99l772 340v4l-772 340v98l899 -404v-73z" />
<glyph unicode="?" horiz-adv-x="911" d="M90 1356q49 35 84 51q104 51 221 51q175 0 284 -99t109 -253q0 -68 -20.5 -126.5t-53 -100.5t-72 -80.5t-79 -75t-72 -75t-53 -89.5t-20.5 -110v-91h-88v91q0 68 20 127t52.5 102.5t71.5 83t78 76.5t71.5 75.5t52.5 88.5t20 106q0 112 -83.5 188t-215.5 76 q-98 0 -186 -43q-23 -12 -74 -43zM313 0v125h121v-125h-121z" />
<glyph unicode="@" horiz-adv-x="1542" d="M109 500q0 204 94 374.5t262.5 270.5t376.5 100q112 0 200.5 -30.5t141.5 -82.5t80.5 -115.5t27.5 -133.5v-705h144v-82h-543q-164 0 -279.5 116.5t-115.5 281.5t115.5 283t279.5 118h307q-2 52 -23 97.5t-62 85t-111.5 62.5t-161.5 23q-182 0 -329.5 -89t-229.5 -241 t-82 -335t82.5 -335t227 -239.5t318.5 -87.5v-86q-147 0 -280.5 59t-229.5 159t-153 239t-57 293zM590 494q0 -131 91.5 -223.5t221.5 -92.5h297v635h-293q-133 0 -225 -94t-92 -225z" />
<glyph unicode="A" horiz-adv-x="1454" d="M20 0v82h154l506 1352h94l506 -1352h154v-82h-422v82h174l-156 414h-608l-154 -414h174v-82h-422zM453 578h546l-249 669q-2 5 -8 25t-9 28q-4 16 -4 25h-4q0 -9 -4 -25q-3 -6 -7.5 -24.5t-8.5 -28.5z" />
<glyph unicode="B" horiz-adv-x="1351" d="M109 0v82h194v1270h-194v82h639q146 0 243 -54q69 -38 112.5 -120t43.5 -187q0 -220 -186 -311v-4q107 -30 175 -128t68 -231q0 -126 -61 -225t-162 -141q-77 -33 -215 -33h-657zM391 82h375q107 0 172 27q81 33 127.5 108t46.5 178q0 146 -88 232t-229 86h-404v-631z M391 795h391q123 0 198 76t75 204q0 77 -30 137.5t-85 96.5q-68 43 -192 43h-357v-557z" />
<glyph unicode="C" horiz-adv-x="1515" d="M121 727q0 154 55.5 290t151 232.5t229.5 152.5t285 56q56 0 120.5 -8.5t137 -29.5t130.5 -52t96 -81.5t38 -112.5v-136h-90v115q0 56 -44 100.5t-112.5 69.5t-139 38t-134.5 13q-132 0 -249 -49.5t-201 -135t-132.5 -206t-48.5 -256.5q0 -184 82 -336.5t228.5 -242 t326.5 -89.5q56 0 126.5 12t145 36t124.5 69t50 103v112h90v-133q0 -73 -55 -130t-140 -89t-173 -48t-168 -16q-208 0 -375.5 101t-260.5 273t-93 378z" />
<glyph unicode="D" horiz-adv-x="1576" d="M109 0v82h194v1270h-194v82h598q186 0 309 -39q204 -68 318 -245.5t114 -434.5q0 -267 -123 -443.5t-346 -240.5q-109 -31 -272 -31h-598zM391 82h301q156 0 264 33q188 56 294 212t106 390q0 227 -99.5 383.5t-279.5 216.5q-102 35 -285 35h-301v-1270z" />
<glyph unicode="E" horiz-adv-x="1261" d="M109 0v82h194v1270h-194v82h989v-267h-86v185h-621v-588h572v-82h-572v-600h662v197h86v-279h-1030z" />
<glyph unicode="F" horiz-adv-x="1136" d="M109 0v82h194v1270h-194v82h938v-277h-86v195h-570v-598h549v-82h-549v-590h205v-82h-487z" />
<glyph unicode="G" horiz-adv-x="1568" d="M123 717q0 156 53.5 292t148.5 235.5t234 156.5t303 57q127 0 246.5 -32t202 -98t82.5 -152v-138h-90v109q0 72 -71.5 125.5t-170.5 77.5t-203 24q-192 0 -339.5 -87t-225.5 -236.5t-78 -335.5t80 -335.5t226 -235t331 -85.5q51 0 110 6.5t127 24t122 43t90 68t36 94.5 v256h-317v82h405v-348q0 -80 -56.5 -142.5t-145 -97.5t-182 -52.5t-181.5 -17.5q-162 0 -300.5 57t-233.5 156t-149 236t-54 293z" />
<glyph unicode="H" d="M109 0v82h194v1270h-194v82h477v-82h-195v-592h909v592h-194v82h477v-82h-194v-1270h194v-82h-477v82h194v596h-909v-596h195v-82h-477z" />
<glyph unicode="I" horiz-adv-x="694" d="M109 0v82h194v1270h-194v82h477v-82h-195v-1270h195v-82h-477z" />
<glyph unicode="J" horiz-adv-x="1095" d="M66 383v53h88v-39q0 -147 76.5 -242.5t218.5 -95.5q55 0 105 18t93.5 55.5t69.5 105.5t26 159v955h-227v82h490v-82h-175v-969q0 -108 -33 -190t-89 -128t-121.5 -68t-138.5 -22q-58 0 -111.5 13t-103.5 44t-87 77t-59 116.5t-22 157.5z" />
<glyph unicode="K" horiz-adv-x="1323" d="M109 0v82h194v1270h-194v82h477v-82h-195v-557h232l387 557h-150v82h408v-82h-152l-418 -594v-4l17 -15q28 -28 43 -57l325 -541q20 -32 46 -45.5t67 -13.5h72v-82h-72q-60 0 -94.5 11t-54.5 31.5t-48 66.5l-321 536q-21 37 -47 52.5t-72 15.5h-168v-631h195v-82h-477z " />
<glyph unicode="L" horiz-adv-x="1183" d="M109 0v82h194v1270h-194v82h477v-82h-195v-1270h639v246h86v-328h-1007z" />
<glyph unicode="M" horiz-adv-x="1900" d="M74 0v82h194l101 1270h-197v82h289l461 -996l20 -47l6 -20h4l9 20l18 47l461 996h289v-82h-197l100 -1270h195v-82h-477v82h194l-88 1110v55q0 21 2 31h-4q-4 -22 -8 -31l-19 -49l-432 -922h-90l-432 922l-18 49q-6 14 -9 31h-4q2 -10 2 -31v-55l-88 -1110h195v-82h-477z " />
<glyph unicode="N" horiz-adv-x="1685" d="M109 0v82h194v1270h-194v82h274l893 -1225q1 -1 27 -47q9 -12 12 -27h4l-4 31q-2 16 -2 53v1133h-195v82h477v-82h-194v-1352h-82l-891 1227l-27 47q-9 12 -12 26h-4l4 -30q4 -34 2 -53v-1135h195v-82h-477z" />
<glyph unicode="O" d="M121 727q0 152 57.5 288t155 232.5t231.5 153.5t281 57t281 -57t231.5 -153.5t155 -232.5t57.5 -288q0 -155 -57.5 -294.5t-155 -239.5t-231.5 -159t-281 -59t-281 59t-231.5 159t-155 239.5t-57.5 294.5zM213 727q0 -139 49.5 -263t134.5 -212.5t202 -140.5t247 -52 t247 52t202 140.5t134.5 212.5t49.5 263q0 181 -84.5 330t-229.5 233t-319 84t-319 -84t-229.5 -233t-84.5 -330z" />
<glyph unicode="P" horiz-adv-x="1290" d="M109 0v82h194v1270h-194v82h634q159 0 248 -43q102 -48 160.5 -146t58.5 -229q0 -144 -69.5 -247.5t-188.5 -145.5q-79 -29 -209 -29h-352v-512h195v-82h-477zM391 676h348q113 0 187 26q92 36 142 117t50 197q0 217 -170 299q-81 37 -209 37h-348v-676z" />
<glyph unicode="Q" d="M121 725q0 153 57 289.5t153.5 233.5t230 153.5t280.5 56.5q149 0 283.5 -56.5t232.5 -153.5t155.5 -233.5t57.5 -289.5q0 -146 -50 -278t-139 -232l185 -190l-58 -56l-182 189q-205 -183 -485 -183q-147 0 -280.5 59t-230 159t-153.5 239t-57 293zM213 725 q0 -184 83 -337t227.5 -241t318.5 -88q115 0 228 41.5t198 118.5l-226 234l58 55l223 -232q73 89 114.5 205.5t41.5 243.5q0 137 -49 257.5t-134 206.5t-203 135.5t-251 49.5q-131 0 -247.5 -49.5t-200 -135.5t-132.5 -206.5t-49 -257.5z" />
<glyph unicode="R" horiz-adv-x="1370" d="M109 0v82h194v1270h-194v82h604q147 0 245 -33q104 -40 163 -127t59 -221q0 -168 -92 -279t-250 -131v-4l12 -12q16 -17 29 -39l270 -459q18 -29 39 -38t65 -9h39v-82h-39q-65 0 -96.5 9t-50.5 28.5t-49 71.5l-256 432q-33 57 -65 75.5t-105 18.5h-240v-553h195v-82h-477 zM391 717h379q141 0 229 91.5t88 240.5q0 208 -176 274q-69 29 -202 29h-318v-635z" />
<glyph unicode="S" horiz-adv-x="1132" d="M129 248v125h90v-105q0 -94 101 -151.5t241 -57.5q157 0 254.5 78.5t97.5 216.5q0 60 -21 110t-52 84t-84 65.5t-98.5 51t-114.5 44.5q-150 59 -204 89q-144 83 -173 218q-8 37 -8 80q0 171 118 266.5t297 95.5q100 0 189 -24t148 -73t59 -114v-137h-90v109q0 36 -28 66 t-73 49t-98.5 29.5t-106.5 10.5q-142 0 -232.5 -71t-90.5 -197q0 -31 6.5 -59t15.5 -50t28 -43.5t34 -36.5t44 -32.5t47.5 -28t55 -26t56.5 -23t61 -23.5q161 -64 219 -98q143 -84 177 -216q12 -47 12 -103q0 -174 -124 -283t-321 -109q-74 0 -148 17t-138.5 49t-105 86 t-40.5 121z" />
<glyph unicode="T" horiz-adv-x="1316" d="M70 1110v324h1177v-324h-86v242h-459v-1270h195v-82h-477v82h194v1270h-458v-242h-86z" />
<glyph unicode="U" horiz-adv-x="1607" d="M74 1352v82h477v-82h-195v-826q0 -178 70 -288q56 -86 153 -132.5t224 -46.5q129 0 228 48.5t153 138.5q67 115 67 284v822h-194v82h477v-82h-195v-830q0 -195 -84 -329q-68 -105 -184.5 -161.5t-265.5 -56.5q-152 0 -271.5 58t-187.5 164q-78 125 -78 325v830h-194z" />
<glyph unicode="V" horiz-adv-x="1429" d="M25 1352v82h419v-82h-170l418 -1174q3 -8 7.5 -26.5t7.5 -26.5l6 -25h6l6 25q3 8 7 26.5t7 26.5l418 1174h-170v82h420v-82h-156l-485 -1352h-102l-486 1352h-153z" />
<glyph unicode="W" horiz-adv-x="2025" d="M35 1352v82h418v-82h-172l288 -1162q8 -29 11 -53l4 -24h6l6 24q3 7 6 25.5t6 27.5l357 1244h96l356 -1244q3 -8 6.5 -27t6.5 -26l6 -24h6l4 24q5 32 10 53l289 1162h-172v82h418v-82h-152l-346 -1352h-111l-352 1227q-5 21 -10 53l-4 25h-6l-4 -25q-5 -35 -11 -53 l-352 -1227h-111l-346 1352h-151z" />
<glyph unicode="X" horiz-adv-x="1277" d="M51 0v82h150l379 639l-381 631h-142v82h418v-82h-174l313 -516q10 -15 21 -37q1 -4 4.5 -9t3.5 -6h4l8 17l19 35l303 516h-168v82h416v-82h-150l-385 -645l381 -625h150v-82h-418v82h166l-310 512l-20 37q-1 4 -4 8.5t-4 5.5h-4l-6 -16l-21 -35l-301 -512h168v-82h-416z " />
<glyph unicode="Y" horiz-adv-x="1300" d="M20 1352v82h418v-82h-170l353 -588l18 -33q4 -6 8 -18h4l8 16l21 35l354 588h-170v82h416v-82h-145l-441 -729v-541h195v-82h-477v82h194v541l-440 729h-146z" />
<glyph unicode="Z" horiz-adv-x="1253" d="M121 0v70l831 1214q8 13 22 29t17 20l17 19v4q-15 0 -23 -2q-14 -2 -55 -2h-713v-242h-86v324h983v-70l-831 -1214q-8 -13 -22 -29.5t-17 -20.5l-17 -18v-4q17 0 25 2q14 2 53 2h742v246h86v-328h-1012z" />
<glyph unicode="[" horiz-adv-x="571" d="M219 -195v1680h221v-82h-133v-1516h133v-82h-221z" />
<glyph unicode="\" horiz-adv-x="806" d="M98 1516h90l519 -1602h-91z" />
<glyph unicode="]" horiz-adv-x="571" d="M131 -113h133v1516h-133v82h221v-1680h-221v82z" />
<glyph unicode="^" horiz-adv-x="1228" d="M158 516l403 918h66l403 -918h-94l-342 795l-342 -795h-94z" />
<glyph unicode="_" horiz-adv-x="1097" d="M41 0h1016v-82h-1016v82z" />
<glyph unicode="`" horiz-adv-x="1042" d="M354 1763h131l193 -227h-111z" />
<glyph unicode="a" horiz-adv-x="1093" d="M86 279q0 55 16.5 101.5t43 79.5t67 59.5t80 43.5t92.5 29.5t93.5 18.5t93 9.5t81.5 4t68 0.5h67v45q0 297 -272 297q-109 0 -217 -49q-32 -14 -84 -52l-49 70q38 32 92 57q107 56 260 56q356 0 356 -377v-547q0 -45 46 -45h122v-80h-135q-63 0 -91 26.5t-28 86.5v22 q0 28 5 68l4 24h-4q-26 -68 -80 -125q-115 -127 -283 -127q-64 0 -123.5 18t-109.5 53.5t-80.5 95.5t-30.5 137zM176 289q0 -97 67.5 -165.5t186.5 -68.5q69 0 128.5 25.5t101 68.5t71 99t43.5 117.5t14 123.5v56h-65h-13q-19 -1 -47 0h-15q-22 0 -49 -2q-36 -3 -75.5 -6 t-80.5 -12.5t-79.5 -21t-72.5 -32t-59.5 -45t-40.5 -60t-15 -77.5z" />
<glyph unicode="b" horiz-adv-x="1198" d="M0 1354v80h281v-533q0 -24 -5 -59l-4 -25h4q27 64 80 117q115 115 291 115q202 0 322.5 -148t120.5 -389q0 -242 -128 -389.5t-331 -147.5q-158 0 -275 117q-55 55 -80 115h-4l4 -25q5 -40 5 -65v-117h-86v1354h-195zM279 510q0 -69 13.5 -134t42.5 -123t70.5 -101 t100.5 -68t129 -25q157 0 260.5 122t103.5 331q0 205 -99.5 329t-256.5 124q-73 0 -136.5 -26.5t-115.5 -79.5t-82 -142.5t-30 -206.5z" />
<glyph unicode="c" horiz-adv-x="1114" d="M104 510q0 120 42.5 222t115 171t168.5 107.5t203 38.5q47 0 103.5 -11t116.5 -33.5t100 -66.5t40 -102v-99h-86v80q0 46 -49 81.5t-110 51t-115 15.5q-185 0 -311.5 -125.5t-126.5 -329.5q0 -200 127 -325.5t311 -125.5q148 0 256 74q52 34 86 74l45 -72 q-40 -43 -98 -80q-129 -80 -289 -80q-108 0 -204.5 38t-168.5 106.5t-114 170t-42 220.5z" />
<glyph unicode="d" horiz-adv-x="1239" d="M109 512q0 242 127.5 389.5t330.5 147.5q162 0 275 -113q54 -54 80 -113h4l-4 25q-4 28 -4 59v447h-195v80h281v-1309q0 -45 45 -45h122v-80h-135q-63 0 -90.5 26.5t-27.5 86.5v22q0 25 4 53l4 19h-4q-25 -60 -80 -115q-117 -117 -291 -117q-202 0 -322 148t-120 389z M199 512q0 -205 99.5 -329t256.5 -124q73 0 137 26.5t116 79.5t82 143t30 206q0 118 -38 218t-121 166.5t-198 66.5q-157 0 -260.5 -122t-103.5 -331z" />
<glyph unicode="e" horiz-adv-x="1124" d="M106 510q0 125 41 228.5t110 170.5t158.5 103.5t188.5 36.5q102 0 183.5 -38t131.5 -103t76.5 -148t26.5 -178q0 -27 -2 -37q-2 -6 -2 -19h-821q0 -215 126 -341t312 -126q123 0 233 66q46 25 84 63l47 -71q-44 -41 -98 -70q-130 -72 -266 -72q-108 0 -204.5 38 t-168.5 106.5t-114 170t-42 220.5zM203 606h729q-7 180 -99.5 271.5t-230.5 91.5q-148 0 -259.5 -95t-139.5 -268z" />
<glyph unicode="f" horiz-adv-x="688" d="M82 944v80h194v55q0 66 12 121t31.5 91.5t47 64.5t54.5 43.5t58 25t54.5 12.5t46.5 3q39 0 53 -2l20 -4v-80l-18 4q-14 2 -49 2q-27 0 -52.5 -5t-58 -22.5t-56.5 -46t-40.5 -81.5t-16.5 -124v-57h273v-80h-273v-864h216v-80h-486v80h184v864h-194z" />
<glyph unicode="g" horiz-adv-x="1222" d="M111 528q0 240 119.5 380.5t320.5 140.5q123 0 220 -48.5t136 -146.5h4q0 6 -2 12q-4 20 -4 39q0 64 27 91.5t92 27.5h152v-80h-140q-45 0 -45 -45v-893q0 -113 -38.5 -199t-105 -136.5t-148.5 -75.5t-177 -25q-164 0 -321 80l41 76q44 -25 82 -37q99 -35 192 -35 q176 0 282.5 88t106.5 264v119q0 31 4 59l4 25h-4q-105 -209 -344 -209q-201 0 -327.5 145t-126.5 383zM201 528q0 -205 101.5 -324.5t268.5 -119.5q72 0 130 23t105.5 73t74 138.5t26.5 209.5q0 437 -356 437q-166 0 -258 -114t-92 -323z" />
<glyph unicode="h" horiz-adv-x="1318" d="M47 1354v80h281v-590q0 -32 -4 -60l-5 -24h5q11 31 33 67t61 76t86.5 72t114.5 53t139 21q98 0 165.5 -28t104.5 -83t52.5 -124.5t15.5 -164.5v-569h184v-80h-270v618q0 62 -4 106t-19 93t-41.5 79t-74 49.5t-113.5 19.5q-181 0 -305.5 -132.5t-124.5 -332.5v-420h184 v-80h-455v80h185v1274h-195z" />
<glyph unicode="i" horiz-adv-x="604" d="M82 944v80h280v-944h185v-80h-455v80h184v864h-194zM264 1284v150h111v-150h-111z" />
<glyph unicode="j" horiz-adv-x="520" d="M-51 -336q6 0 12 -2t33 -2q30 0 58 5t63.5 24t62 49.5t44.5 87t18 131.5v987h-195v80h281v-1065q0 -70 -12.5 -128t-33 -96.5t-49.5 -67.5t-58 -45t-62.5 -26t-59 -13t-51.5 -3q-31 0 -37 2t-14 2v80zM227 1284v150h111v-150h-111z" />
<glyph unicode="k" horiz-adv-x="1099" d="M47 1354v80h281v-813h172l276 323h-160v80h416v-80h-145l-307 -354v-4q2 0 9 -4.5t23.5 -24t34.5 -49.5l230 -383q17 -29 34 -37t64 -8h76v-80h-80q-80 0 -112 20t-75 89l-233 387q-18 28 -39.5 36.5t-65.5 8.5h-118v-461h184v-80h-455v80h185v1274h-195z" />
<glyph unicode="l" horiz-adv-x="518" d="M4 1354v80h279v-1201q0 -157 120 -157q40 0 46 2t16 2l-2 -80q-15 0 -23 -2q-14 -2 -51 -2q-192 0 -192 229v1129h-193z" />
<glyph unicode="m" horiz-adv-x="2033" d="M82 944v80h162q63 0 90.5 -26.5t27.5 -86.5v-67q0 -32 -4 -60l-4 -24h4q37 115 155.5 202t238.5 87q151 0 228 -69.5t95 -209.5h4q47 113 154.5 196t234.5 83q97 0 164.5 -27t106 -81t55 -125t16.5 -167v-569h185v-80h-271v618q0 63 -5.5 111t-22 95t-44 77.5t-74 49 t-110.5 18.5q-81 0 -153.5 -41t-121.5 -106.5t-77.5 -148t-28.5 -165.5v-428h185v-80h-271v618q0 61 -4 105t-18.5 93.5t-40.5 80.5t-73 51.5t-113 20.5q-107 0 -198 -68.5t-141.5 -174t-50.5 -218.5v-428h185v-80h-455v80h184v819q0 45 -45 45h-149z" />
<glyph unicode="n" horiz-adv-x="1353" d="M82 944v80h162q63 0 90.5 -26.5t27.5 -86.5v-67q0 -32 -4 -60l-4 -24h4q14 40 47.5 86.5t86 93.5t132 78t169.5 31q98 0 165.5 -28t104 -83t52 -124.5t15.5 -164.5v-569h185v-80h-271v618q0 51 -3 88.5t-11 80.5t-25.5 72.5t-44.5 55t-69 38t-98 12.5q-89 0 -169.5 -37 t-137.5 -99t-90.5 -146t-33.5 -175v-428h185v-80h-455v80h184v819q0 45 -45 45h-149z" />
<glyph unicode="o" horiz-adv-x="1265" d="M102 518q0 147 71 269t193 192t267 70t266.5 -70t192.5 -192t71 -269q0 -150 -71 -275t-192.5 -196.5t-266.5 -71.5q-108 0 -206 42.5t-169.5 114.5t-113.5 173t-42 213zM193 518q0 -195 128 -327t312 -132t312 132t128 327q0 189 -128 318t-312 129t-312 -129t-128 -318 z" />
<glyph unicode="p" horiz-adv-x="1245" d="M47 944v80h162q63 0 91 -26.5t28 -86.5v-10q0 -45 -2 -59l-4 -23h4q27 64 75 115q111 115 293 115q202 0 322.5 -148t120.5 -389q0 -242 -127.5 -389.5t-327.5 -147.5q-162 0 -279 117q-53 53 -79 115h-5l5 -25q4 -32 4 -65v-447h184v-80h-455v80h185v1229q0 45 -45 45 h-150zM326 510q0 -86 24 -166.5t67.5 -144t112.5 -102t152 -38.5q157 0 261 122t104 331q0 205 -100 329t-257 124q-73 0 -136.5 -26.5t-115.5 -79.5t-82 -142.5t-30 -206.5z" />
<glyph unicode="q" horiz-adv-x="1198" d="M109 512q0 242 127.5 389.5t330.5 147.5q162 0 273 -111q51 -51 80 -113h4q0 15 -2 23q-4 28 -4 59v117h86v-1354h184v-80h-455v80h185v447q0 33 4 65l4 25h-4q-25 -60 -80 -115q-117 -117 -291 -117q-202 0 -322 148t-120 389zM199 512q0 -205 99.5 -329t256.5 -124 q73 0 137 26.5t116 79.5t82 143t30 206q0 118 -38 218.5t-121 167.5t-198 67q-157 0 -260.5 -123t-103.5 -332z" />
<glyph unicode="r" horiz-adv-x="763" d="M74 944v80h162q63 0 90.5 -26.5t27.5 -86.5v-71q0 -46 -2 -60q-2 -8 -2 -24h4q40 125 123 200.5t201 75.5q31 0 41 -2l18 -4v-86q-8 0 -14 2q-8 2 -33 2q-69 0 -126.5 -32.5t-95.5 -84.5t-64.5 -119t-38 -134t-11.5 -132v-362h164v-80h-414v80h164v819q0 45 -45 45h-149z " />
<glyph unicode="s" horiz-adv-x="942" d="M100 217v88h86v-78q0 -57 50 -96.5t114.5 -55.5t132.5 -16q111 0 190 50t79 137q0 27 -9.5 51.5t-22 43t-38.5 37.5t-45.5 31t-56.5 28t-58.5 24l-64.5 24q-60 23 -94.5 38t-82.5 43.5t-74 56t-45.5 69.5t-19.5 92q0 123 99.5 194t232.5 71q52 0 107 -11.5t105.5 -34 t83 -61.5t32.5 -88v-113h-86v84q0 63 -71.5 101.5t-166.5 38.5q-102 0 -174 -46t-72 -128q0 -26 9 -49.5t21 -41t37 -36t42.5 -30t54 -27.5t56 -24t61.5 -24t69 -27t65.5 -29.5t63 -34.5t52.5 -40t43.5 -48.5t26 -57t10.5 -68.5q0 -124 -100.5 -201.5t-266.5 -77.5 q-151 0 -263 66t-112 176z" />
<glyph unicode="t" horiz-adv-x="647" d="M35 944v80h194v285h86v-285h269v-80h-269v-567q0 -77 18 -135t44 -89.5t61.5 -50.5t63.5 -24.5t57 -5.5t35 2t12 2v-80q-8 0 -14 -2t-37 -2q-26 0 -51.5 3t-59 13t-62.5 26t-58 45t-49.5 67.5t-33 96.5t-12.5 128v573h-194z" />
<glyph unicode="u" horiz-adv-x="1312" d="M37 944v80h280v-618q0 -62 4 -106t19 -93t41.5 -79t74 -49.5t113.5 -19.5q124 0 221.5 66.5t148 172t50.5 226.5v420h-194v80h280v-901q0 -45 45 -45h123v-78h-135q-63 0 -91 26.5t-28 86.5v57q0 45 2 59q2 8 2 25h-4q-14 -41 -46 -86t-83 -90t-127.5 -74t-163.5 -29 q-183 0 -260.5 98.5t-77.5 301.5v569h-194z" />
<glyph unicode="v" horiz-adv-x="1122" d="M16 944v80h394v-80h-162l293 -766q3 -7 7 -22.5t7 -22.5q4 -12 4 -20h4q0 8 4 20q3 7 7.5 22.5t7.5 22.5l292 766h-161v80h393v-80h-139l-365 -944h-82l-364 944h-140z" />
<glyph unicode="w" horiz-adv-x="1728" d="M18 944v80h394v-80h-166l250 -772q5 -13 10 -45l4 -21h4l4 21q4 25 12 45l287 848h94l287 -848q8 -19 12 -45l4 -21h5l4 21q3 20 10 45l250 772h-166v80h393v-80h-135l-315 -944h-86l-289 842q-3 8 -6.5 23t-6.5 22l-6 22h-4l-6 -22q-3 -7 -6 -22t-6 -23l-289 -842h-86 l-315 944h-136z" />
<glyph unicode="x" horiz-adv-x="1114" d="M53 0v80h170l279 455l-254 409h-182v80h231l227 -373l23 -35q4 -6 8 -18h4l8 16l23 39l229 371h230v-80h-181l-258 -412l283 -452h168v-80h-219l-254 416l-21 37q-9 14 -10 16h-4l-8 -16q-2 -3 -6 -10.5t-8.5 -15t-8.5 -13.5l-252 -414h-217z" />
<glyph unicode="y" horiz-adv-x="1148" d="M16 944v80h396v-80h-162l305 -780q7 -17 12 -41l4 -17h4q0 2 5 17q3 5 7 20t7 21l305 780h-162v80h396v-80h-142l-463 -1159q-39 -98 -108.5 -156.5t-163.5 -58.5q-59 0 -119 27q-26 13 -47 28l39 76q16 -16 37 -25q39 -24 90 -24q67 0 119.5 52.5t83.5 131.5l69 168 l-372 940h-140z" />
<glyph unicode="z" horiz-adv-x="1036" d="M104 0v70l650 815q21 27 37 43l14 14v4h-23q-6 0 -23 -1t-30 -1h-522v-194h-84v274h799v-70l-652 -815q-21 -27 -37 -43l-14 -14v-4q6 2 23 2h53h543v194h84v-274h-818z" />
<glyph unicode="{" horiz-adv-x="624" d="M80 616v82q44 8 88 39q86 66 86 205v166q0 72 12.5 131t31.5 97t46 66.5t52 43.5t53.5 24t47 11t35.5 2h19v-80h-12q-19 0 -39 -4t-50 -21.5t-52.5 -46.5t-39 -86.5t-16.5 -134.5v-190q0 -125 -80 -205q-40 -40 -82 -56v-4q42 -16 82 -53q80 -76 80 -207v-217 q0 -77 16.5 -134.5t39 -86.5t52.5 -46.5t50 -21.5t39 -4h12v-80q0 -2 -4 -2h-15q-17 0 -35.5 2t-47 11t-53.5 24t-52 44t-46 67t-31.5 97.5t-12.5 131.5v193q0 139 -86 205q-42 30 -88 38z" />
<glyph unicode="|" horiz-adv-x="522" d="M217 -317v1925h88v-1925h-88z" />
<glyph unicode="}" horiz-adv-x="624" d="M74 -115h12q19 0 39 4t50 21.5t52.5 46.5t39 86.5t16.5 134.5v217q0 129 82 207q40 37 79 53v4q-39 16 -79 56q-82 82 -82 205v190q0 77 -16.5 134.5t-39 86.5t-52.5 46.5t-50 21.5t-39 4h-12v80h18q18 0 37 -2t48 -11t54 -24t51.5 -43.5t45.5 -66.5t31 -97t12 -131v-166 q0 -137 88 -205q43 -31 86 -39v-82q-44 -8 -86 -38q-88 -68 -88 -205v-193q0 -72 -12 -131.5t-31 -97.5t-45.5 -67t-51.5 -44t-54 -24t-48 -11t-37 -2h-14q-4 0 -4 2v80z" />
<glyph unicode="~" horiz-adv-x="1218" d="M166 436q0 152 64 223.5t171 71.5q54 0 98.5 -16.5t72 -41.5t56.5 -54.5t53 -54.5t61 -41.5t81 -16.5q39 0 68.5 16.5t45 39.5t25.5 55t12.5 56.5t2.5 49.5h82q0 -152 -64.5 -223.5t-171.5 -71.5q-54 0 -98.5 16.5t-72 41.5t-56.5 54.5t-53 54.5t-61 41.5t-81 16.5 q-48 0 -81 -23t-47.5 -60.5t-19.5 -69t-5 -64.5h-82z" />
<glyph unicode="&#xa1;" horiz-adv-x="428" d="M152 899v125h120v-125h-120zM170 -410v1076h88v-1076h-88z" />
<glyph unicode="&#xa2;" horiz-adv-x="1110" d="M104 717q0 152 46 275t144.5 204t237.5 92v170h89v-170q247 -22 378 -291l-84 -32q-114 237 -333 237q-99 0 -174.5 -37.5t-120.5 -105t-67.5 -153.5t-22.5 -189t22.5 -189.5t67.5 -153.5t120.5 -105t174.5 -38q218 0 333 238l84 -33q-133 -272 -378 -291v-172h-89v172 q-207 20 -317.5 178t-110.5 394z" />
<glyph unicode="&#xa3;" horiz-adv-x="1232" d="M96 0v82h185v600h-134v82h134v332q0 155 113.5 258.5t289.5 103.5q115 0 219 -51q44 -20 82 -53l-59 -68q-35 25 -68 43q-80 43 -176 43q-147 0 -230 -82.5t-83 -202.5v-323h405v-82h-405v-600h671v246h86v-328h-1030z" />
<glyph unicode="&#xa5;" horiz-adv-x="1259" d="M100 1434h101l340 -566q29 -44 59 -106l29 -55h4l29 55q30 62 59 106l340 566h100l-379 -631h222v-82h-271l-57 -98v-86h328v-82h-328v-455h-88v455h-334v82h334v86l-60 98h-274v82h225z" />
<glyph unicode="&#xa7;" horiz-adv-x="768" d="M119 -59l53 65q13 -13 39 -24q45 -25 100 -25q100 0 165 63.5t65 167.5q0 29 -2 43l-133 973h86l137 -971q4 -36 4 -51q0 -133 -92 -221t-232 -88q-63 0 -135 33q-35 18 -55 35zM139 1149q0 132 92.5 220.5t231.5 88.5q63 0 135 -33q38 -19 55 -34l-53 -66q-14 14 -39 25 q-43 24 -100 24q-100 0 -166 -63.5t-66 -167.5q0 -15 4 -43l134 -973h-86l-138 971q-4 32 -4 51z" />
<glyph unicode="&#xa8;" horiz-adv-x="1042" d="M293 1614v149h110v-149h-110zM637 1614v149h111v-149h-111z" />
<glyph unicode="&#xa9;" horiz-adv-x="1665" d="M109 717q0 153 57 290.5t153 236t229.5 156.5t280.5 58q149 0 284 -58t232.5 -156.5t155.5 -236t58 -290.5q0 -204 -98 -375t-265.5 -269t-366.5 -98q-147 0 -280.5 58t-229.5 156.5t-153 236.5t-57 291zM201 717q0 -183 82.5 -333.5t227 -236.5t318.5 -86 q177 0 323.5 86t230 236.5t83.5 333.5q0 136 -49.5 257.5t-134 208.5t-202.5 138t-251 51q-131 0 -247.5 -51t-200 -138t-132 -208.5t-48.5 -257.5zM414 715q0 82 28.5 158.5t81.5 138t139 98.5t191 37q139 0 248 -90q54 -42 86 -90l-68 -60q-35 47 -69 76q-92 76 -195 76 q-113 0 -194.5 -50.5t-118.5 -126.5t-37 -165q0 -65 22 -125.5t64 -109t110.5 -78t153.5 -29.5q105 0 197 76q39 34 67 75l68 -59q-35 -49 -88 -90q-109 -90 -246 -90q-106 0 -191.5 36.5t-139 97.5t-81.5 136.5t-28 157.5z" />
<glyph unicode="&#xaa;" horiz-adv-x="882" d="M180 539v75h518v-75h-518zM186 973q0 227 398 227h28v8q0 170 -155 170q-59 0 -125 -28q-31 -14 -51 -31l-45 61q26 23 59 37q80 37 164 37q233 0 233 -246v-413h-80v104h-4q-15 -28 -47 -57q-64 -60 -147 -60q-57 0 -107.5 19.5t-85.5 64.5t-35 107zM270 981 q0 -51 38 -87t108 -36q88 0 142 77t54 171v20h-26q-33 0 -56.5 -1t-65.5 -4.5t-71.5 -13.5t-60 -25t-46.5 -41t-16 -60z" />
<glyph unicode="&#xab;" horiz-adv-x="1015" d="M111 578l335 421h109l-336 -421l336 -420h-109zM438 578l336 421h109l-336 -421l336 -420h-109z" />
<glyph unicode="&#xac;" horiz-adv-x="1230" d="M147 702v82h934v-448h-86v366h-848z" />
<glyph unicode="&#xad;" horiz-adv-x="1081" d="M258 539v82h565v-82h-565z" />
<glyph unicode="&#xae;" horiz-adv-x="1665" d="M109 717q0 153 57 290.5t153 236t229.5 156.5t280.5 58q149 0 284 -58t232.5 -156.5t155.5 -236t58 -290.5q0 -204 -98 -375t-265.5 -269t-366.5 -98q-147 0 -280.5 58t-229.5 156.5t-153 236.5t-57 291zM201 717q0 -183 82.5 -333.5t227 -236.5t318.5 -86 q177 0 323.5 86t230 236.5t83.5 333.5q0 136 -49.5 257.5t-134 208.5t-202.5 138t-251 51q-131 0 -247.5 -51t-200 -138t-132 -208.5t-48.5 -257.5zM592 307v819h272q105 0 171.5 -64.5t66.5 -172.5q0 -87 -45 -143.5t-113 -75.5v-4l6 -11q11 -11 21 -34l162 -314h-101 l-174 342h-176v-342h-90zM682 727h172q72 0 114 43.5t42 118.5q0 73 -42 114t-114 41h-172v-317z" />
<glyph unicode="&#xaf;" horiz-adv-x="1042" d="M276 1610v82h490v-82h-490z" />
<glyph unicode="&#xb0;" horiz-adv-x="757" d="M113 1186q0 110 78 189t188 79t189 -79t79 -189t-79 -188t-189 -78t-188 78t-78 188zM201 1186q0 -79 50.5 -132t127.5 -53q78 0 129 53t51 132t-51.5 132.5t-128.5 53.5t-127.5 -53.5t-50.5 -132.5z" />
<glyph unicode="&#xb1;" horiz-adv-x="1228" d="M86 539v82h485v538h88v-538h484v-82h-484v-539h-88v539h-485zM127 -231h975v-82h-975v82z" />
<glyph unicode="&#xb2;" horiz-adv-x="722" d="M78 932q0 63 25 117.5t65 93.5t88 74t96 68t88 66.5t65 78t25 94.5q0 74 -51.5 126t-134.5 52q-77 0 -139 -51q-22 -17 -53 -52l-50 54q27 34 64 61q82 62 178 62q126 0 196 -73t70 -179q0 -62 -24.5 -114t-64 -89t-87 -70t-95.5 -65t-88 -65.5t-65.5 -79.5t-27.5 -101 h393v117h78v-191h-547q0 17 -2 23q-2 14 -2 43z" />
<glyph unicode="&#xb3;" horiz-adv-x="737" d="M68 979l57 53q23 -33 55 -55q72 -57 172 -57q79 0 145 59.5t66 146.5q0 89 -66.5 143t-152.5 54h-65l-23 49l231 273q25 25 29 28l12 10v5q-8 0 -14 -2q-35 -5 -41 -5h-285v-116h-77v190h526v-53l-264 -309q45 -2 89.5 -18t86.5 -46.5t68 -83t26 -119.5 q0 -117 -86.5 -198.5t-206.5 -81.5t-215 67q-37 25 -67 66z" />
<glyph unicode="&#xb4;" horiz-adv-x="1042" d="M365 1536l192 227h131l-213 -227h-110z" />
<glyph unicode="&#xb6;" horiz-adv-x="1126" d="M92 965q0 129 67 237.5t179.5 170t243.5 61.5h430v-82h-342v-1454h-86v596q-129 0 -242.5 62.5t-181.5 171.5t-68 237zM797 -102v1325h86v-1325h-86z" />
<glyph unicode="&#xb7;" horiz-adv-x="571" d="M223 522v129h125v-129h-125z" />
<glyph unicode="&#xb8;" horiz-adv-x="1042" d="M383 -332l25 -6q28 -4 59 -4q106 0 106 76q0 38 -32.5 58t-89.5 20h-25l49 233l72 -10v-17l-27 -141q60 -6 99.5 -45t39.5 -94q0 -80 -53 -118t-133 -38q-33 0 -65 4l-25 4v78z" />
<glyph unicode="&#xb9;" horiz-adv-x="628" d="M80 866v74h217v645q0 31 2 45q2 6 2 19h-2l-8 -11l-27 -28l-125 -123l-53 55l211 213h78v-815h211v-74h-506z" />
<glyph unicode="&#xba;" horiz-adv-x="983" d="M156 1124q0 139 97.5 235.5t235.5 96.5q139 0 236.5 -96.5t97.5 -235.5q0 -144 -97.5 -242t-236.5 -98t-236 98t-97 242zM193 539v75h602v-75h-602zM236 1124q0 -113 73 -188.5t180 -75.5t180.5 75.5t73.5 188.5q0 109 -73.5 182.5t-180.5 73.5t-180 -73t-73 -183z" />
<glyph unicode="&#xbb;" horiz-adv-x="1015" d="M133 158l336 420l-336 421h109l336 -421l-336 -420h-109zM461 158l336 420l-336 421h108l336 -421l-336 -420h-108z" />
<glyph unicode="&#xbc;" horiz-adv-x="1878" d="M125 545v73h217v646q0 31 2 45q2 6 2 18h-2l-8 -10l-27 -29l-125 -123l-53 56l211 213h78v-816h211v-73h-506zM530 0l689 1434h88l-686 -1434h-91zM1135 248v53l454 588h64v-567h139v-74h-139v-248h-78v248h-440zM1243 322h332v358q0 23 4 55q2 10 2 29h-4 q-4 -13 -12 -23q-15 -27 -33 -47l-289 -368v-4z" />
<glyph unicode="&#xbd;" horiz-adv-x="1832" d="M109 545v73h217v646q0 31 2 45q2 6 2 18h-2l-9 -10l-26 -29l-125 -123l-53 56l211 213h77v-816h211v-73h-505zM514 0l688 1434h88l-686 -1434h-90zM1176 66q0 63 25 117.5t65 93.5t88 74t96 67.5t88 66t65 78t25 94.5q0 74 -52 126.5t-134 52.5q-75 0 -139 -52 q-28 -22 -54 -51l-49 53q29 36 64 62q81 61 178 61q126 0 196 -73t70 -179q0 -62 -24.5 -114t-64 -89t-87 -70t-96 -64.5t-88.5 -65t-65.5 -79.5t-27.5 -101h394v116h77v-190h-546q0 17 -2 23q-2 14 -2 43z" />
<glyph unicode="&#xbe;" horiz-adv-x="1921" d="M111 657l57 54q24 -35 55 -56q72 -57 172 -57q79 0 145 60t66 147q0 89 -66.5 142.5t-152.5 53.5h-65l-23 50l231 272l29 29l12 10v4q-8 0 -14 -2q-28 -4 -41 -4h-285v-117h-77v191h526v-54l-264 -309q45 -2 89.5 -18t86.5 -46t68 -82.5t26 -119.5q0 -117 -86.5 -199 t-206.5 -82q-118 0 -215 68q-39 26 -67 65zM567 0l688 1434h88l-686 -1434h-90zM1171 248v53l455 588h64v-567h139v-74h-139v-248h-78v248h-441zM1280 322h332v358q0 23 4 55q2 10 2 29h-4q-4 -13 -12 -23q-15 -27 -33 -47l-289 -368v-4z" />
<glyph unicode="&#xbf;" horiz-adv-x="899" d="M115 -78q0 68 20.5 126.5t53 101t72 80.5t79 75t72 75t53 89.5t20.5 110.5v86h88v-86q0 -68 -20 -127t-52.5 -102.5t-71.5 -83t-78 -77t-71.5 -76t-52.5 -88.5t-20 -106q0 -112 83.5 -188t215.5 -76q98 0 186 43q23 12 74 43l47 -70q-49 -35 -84 -51q-104 -51 -221 -51 q-175 0 -284 99t-109 253zM469 899v125h121v-125h-121z" />
<glyph unicode="&#xc0;" horiz-adv-x="1454" d="M20 0v82h154l506 1352h94l506 -1352h154v-82h-422v82h174l-156 414h-608l-154 -414h174v-82h-422zM453 578h546l-249 669q-2 5 -8 25t-9 28q-4 16 -4 25h-4q0 -9 -4 -25q-3 -6 -7.5 -24.5t-8.5 -28.5zM479 1763h131l193 -227h-111z" />
<glyph unicode="&#xc1;" horiz-adv-x="1454" d="M20 0v82h154l506 1352h94l506 -1352h154v-82h-422v82h174l-156 414h-608l-154 -414h174v-82h-422zM453 578h546l-249 669q-2 5 -8 25t-9 28q-4 16 -4 25h-4q0 -9 -4 -25q-3 -6 -7.5 -24.5t-8.5 -28.5zM649 1536l193 227h131l-213 -227h-111z" />
<glyph unicode="&#xc2;" horiz-adv-x="1454" d="M20 0v82h154l506 1352h94l506 -1352h154v-82h-422v82h174l-156 414h-608l-154 -414h174v-82h-422zM453 578h546l-249 669q-2 5 -8 25t-9 28q-4 16 -4 25h-4q0 -9 -4 -25q-3 -6 -7.5 -24.5t-8.5 -28.5zM502 1536l164 227h122l164 -227h-108l-115 164h-4l-115 -164h-108z " />
<glyph unicode="&#xc3;" horiz-adv-x="1454" d="M20 0v82h154l506 1352h94l506 -1352h154v-82h-422v82h174l-156 414h-608l-154 -414h174v-82h-422zM424 1542q0 221 172 221q43 0 77.5 -15t56 -36.5t41 -43.5t41.5 -37t46 -15q84 0 84 141h90q0 -221 -172 -221q-43 0 -77.5 15t-56 37t-40.5 43.5t-41 36.5t-47 15 q-84 0 -84 -141h-90zM453 578h546l-249 669q-2 5 -8 25t-9 28q-4 16 -4 25h-4q0 -9 -4 -25q-3 -6 -7.5 -24.5t-8.5 -28.5z" />
<glyph unicode="&#xc4;" horiz-adv-x="1454" d="M20 0v82h154l506 1352h94l506 -1352h154v-82h-422v82h174l-156 414h-608l-154 -414h174v-82h-422zM453 578h546l-249 669q-2 5 -8 25t-9 28q-4 16 -4 25h-4q0 -9 -4 -25q-3 -6 -7.5 -24.5t-8.5 -28.5zM500 1614v149h110v-149h-110zM844 1614v149h110v-149h-110z" />
<glyph unicode="&#xc5;" horiz-adv-x="1454" d="M20 0v82h154l506 1352h94l506 -1352h154v-82h-422v82h174l-156 414h-608l-154 -414h174v-82h-422zM453 578h546l-249 669q-2 5 -8 25t-9 28q-4 16 -4 25h-4q0 -9 -4 -25q-3 -6 -7.5 -24.5t-8.5 -28.5zM575 1651q0 65 44 109t108 44q66 0 111 -43.5t45 -109.5 q0 -63 -45 -106.5t-111 -43.5q-63 0 -107.5 43.5t-44.5 106.5zM655 1651q0 -32 20 -53t52 -21q35 0 55.5 20.5t20.5 53.5q0 37 -20.5 58.5t-55.5 21.5q-32 0 -52 -21.5t-20 -58.5z" />
<glyph unicode="&#xc6;" horiz-adv-x="1849" d="M20 0v82h142l520 1270h-168v82h1174v-267h-86v185h-621v-588h571v-82h-571v-600h661v186h87v-268h-1020v82h184v600h-389l-248 -600h166v-82h-402zM537 764h356v588h-115z" />
<glyph unicode="&#xc7;" horiz-adv-x="1515" d="M121 727q0 154 55.5 290t151 232.5t229.5 152.5t285 56q56 0 120.5 -8.5t137 -29.5t130.5 -52t96 -81.5t38 -112.5v-136h-90v115q0 56 -44 100.5t-112.5 69.5t-139 38t-134.5 13q-132 0 -249 -49.5t-201 -135t-132.5 -206t-48.5 -256.5q0 -184 82 -336.5t228.5 -242 t326.5 -89.5q56 0 126.5 12t145 36t124.5 69t50 103v112h90v-133q0 -58 -35.5 -106t-90.5 -79t-126.5 -53.5t-138.5 -32.5t-131 -12l-18 -98q60 -6 99.5 -45t39.5 -94q0 -80 -53 -118t-133 -38q-34 0 -66 4l-24 4v78l24 -6q28 -4 60 -4q106 0 106 76q0 38 -33 58t-90 20h-24 l34 165q-291 25 -478 237.5t-187 512.5z" />
<glyph unicode="&#xc8;" horiz-adv-x="1261" d="M109 0v82h194v1270h-194v82h989v-267h-86v185h-621v-588h572v-82h-572v-600h662v197h86v-279h-1030zM391 1763h131l193 -227h-111z" />
<glyph unicode="&#xc9;" horiz-adv-x="1261" d="M109 0v82h194v1270h-194v82h989v-267h-86v185h-621v-588h572v-82h-572v-600h662v197h86v-279h-1030zM561 1536l193 227h131l-213 -227h-111z" />
<glyph unicode="&#xca;" horiz-adv-x="1261" d="M109 0v82h194v1270h-194v82h989v-267h-86v185h-621v-588h572v-82h-572v-600h662v197h86v-279h-1030zM414 1536l164 227h122l164 -227h-108l-115 164h-4l-115 -164h-108z" />
<glyph unicode="&#xcb;" horiz-adv-x="1261" d="M109 0v82h194v1270h-194v82h989v-267h-86v185h-621v-588h572v-82h-572v-600h662v197h86v-279h-1030zM412 1614v149h110v-149h-110zM756 1614v149h110v-149h-110z" />
<glyph unicode="&#xcc;" horiz-adv-x="694" d="M98 1763h131l193 -227h-111zM109 0v82h194v1270h-194v82h477v-82h-195v-1270h195v-82h-477z" />
<glyph unicode="&#xcd;" horiz-adv-x="694" d="M109 0v82h194v1270h-194v82h477v-82h-195v-1270h195v-82h-477zM268 1536l193 227h131l-213 -227h-111z" />
<glyph unicode="&#xce;" horiz-adv-x="694" d="M109 0v82h194v1270h-194v82h477v-82h-195v-1270h195v-82h-477zM121 1536l164 227h123l163 -227h-108l-115 164h-4l-115 -164h-108z" />
<glyph unicode="&#xcf;" horiz-adv-x="694" d="M109 0v82h194v1270h-194v82h477v-82h-195v-1270h195v-82h-477zM119 1614v149h110v-149h-110zM463 1614v149h110v-149h-110z" />
<glyph unicode="&#xd0;" horiz-adv-x="1597" d="M109 0v82h194v600h-164v82h164v588h-194v82h645q324 0 519 -191t195 -526q0 -225 -90 -388t-250 -246t-374 -83h-645zM391 82h348q292 0 464.5 166t172.5 469q0 302 -173 468.5t-464 166.5h-348v-588h375v-82h-375v-600z" />
<glyph unicode="&#xd1;" horiz-adv-x="1685" d="M109 0v82h194v1270h-194v82h274l893 -1225q1 -1 27 -47q9 -12 12 -27h4l-4 31q-2 16 -2 53v1133h-195v82h477v-82h-194v-1352h-82l-891 1227l-27 47q-9 12 -12 26h-4l4 -30q4 -34 2 -53v-1135h195v-82h-477zM549 1542q0 221 172 221q43 0 77.5 -15t56 -36.5t41 -43.5 t41.5 -37t46 -15q84 0 84 141h90q0 -221 -172 -221q-43 0 -77.5 15t-56 37t-40.5 43.5t-41 36.5t-47 15q-84 0 -84 -141h-90z" />
<glyph unicode="&#xd2;" d="M121 727q0 152 57.5 288t155 232.5t231.5 153.5t281 57t281 -57t231.5 -153.5t155 -232.5t57.5 -288q0 -155 -57.5 -294.5t-155 -239.5t-231.5 -159t-281 -59t-281 59t-231.5 159t-155 239.5t-57.5 294.5zM213 727q0 -139 49.5 -263t134.5 -212.5t202 -140.5t247 -52 t247 52t202 140.5t134.5 212.5t49.5 263q0 181 -84.5 330t-229.5 233t-319 84t-319 -84t-229.5 -233t-84.5 -330zM598 1763h131l193 -227h-111z" />
<glyph unicode="&#xd3;" d="M121 727q0 152 57.5 288t155 232.5t231.5 153.5t281 57t281 -57t231.5 -153.5t155 -232.5t57.5 -288q0 -155 -57.5 -294.5t-155 -239.5t-231.5 -159t-281 -59t-281 59t-231.5 159t-155 239.5t-57.5 294.5zM213 727q0 -139 49.5 -263t134.5 -212.5t202 -140.5t247 -52 t247 52t202 140.5t134.5 212.5t49.5 263q0 181 -84.5 330t-229.5 233t-319 84t-319 -84t-229.5 -233t-84.5 -330zM768 1536l193 227h131l-213 -227h-111z" />
<glyph unicode="&#xd4;" d="M121 727q0 152 57.5 288t155 232.5t231.5 153.5t281 57t281 -57t231.5 -153.5t155 -232.5t57.5 -288q0 -155 -57.5 -294.5t-155 -239.5t-231.5 -159t-281 -59t-281 59t-231.5 159t-155 239.5t-57.5 294.5zM213 727q0 -139 49.5 -263t134.5 -212.5t202 -140.5t247 -52 t247 52t202 140.5t134.5 212.5t49.5 263q0 181 -84.5 330t-229.5 233t-319 84t-319 -84t-229.5 -233t-84.5 -330zM621 1536l163 227h123l164 -227h-108l-115 164h-4l-115 -164h-108z" />
<glyph unicode="&#xd5;" d="M121 727q0 152 57.5 288t155 232.5t231.5 153.5t281 57t281 -57t231.5 -153.5t155 -232.5t57.5 -288q0 -155 -57.5 -294.5t-155 -239.5t-231.5 -159t-281 -59t-281 59t-231.5 159t-155 239.5t-57.5 294.5zM213 727q0 -139 49.5 -263t134.5 -212.5t202 -140.5t247 -52 t247 52t202 140.5t134.5 212.5t49.5 263q0 181 -84.5 330t-229.5 233t-319 84t-319 -84t-229.5 -233t-84.5 -330zM543 1542q0 221 172 221q43 0 77.5 -15t56 -36.5t41 -43.5t41.5 -37t46 -15q84 0 84 141h90q0 -221 -172 -221q-43 0 -77.5 15t-56 37t-40.5 43.5t-41 36.5 t-47 15q-84 0 -84 -141h-90z" />
<glyph unicode="&#xd6;" d="M121 727q0 152 57.5 288t155 232.5t231.5 153.5t281 57t281 -57t231.5 -153.5t155 -232.5t57.5 -288q0 -155 -57.5 -294.5t-155 -239.5t-231.5 -159t-281 -59t-281 59t-231.5 159t-155 239.5t-57.5 294.5zM213 727q0 -139 49.5 -263t134.5 -212.5t202 -140.5t247 -52 t247 52t202 140.5t134.5 212.5t49.5 263q0 181 -84.5 330t-229.5 233t-319 84t-319 -84t-229.5 -233t-84.5 -330zM618 1614v149h111v-149h-111zM963 1614v149h110v-149h-110z" />
<glyph unicode="&#xd7;" horiz-adv-x="1228" d="M100 57l459 523l-459 522l58 57l456 -518l457 518l57 -57l-460 -522l460 -523l-57 -57l-457 518l-456 -518z" />
<glyph unicode="&#xd8;" d="M121 727q0 152 57.5 288t155 232.5t231.5 153.5t281 57q211 0 393 -117l100 142l70 -51l-100 -142q124 -102 193 -247.5t69 -315.5q0 -155 -57.5 -294.5t-155 -239.5t-231.5 -159t-281 -59q-213 0 -393 119l-101 -141l-71 49l102 143q-124 107 -193 256t-69 326zM213 727 q0 -153 58 -284.5t163 -225.5l754 1055q-151 102 -342 102q-174 0 -319 -84t-229.5 -233t-84.5 -330zM502 164q150 -105 344 -105q130 0 247 52t202 140.5t134.5 212.5t49.5 263q0 150 -58.5 277t-163.5 217z" />
<glyph unicode="&#xd9;" horiz-adv-x="1607" d="M74 1352v82h477v-82h-195v-826q0 -178 70 -288q56 -86 153 -132.5t224 -46.5q129 0 228 48.5t153 138.5q67 115 67 284v822h-194v82h477v-82h-195v-830q0 -195 -84 -329q-68 -105 -184.5 -161.5t-265.5 -56.5q-152 0 -271.5 58t-187.5 164q-78 125 -78 325v830h-194z M555 1763h131l193 -227h-111z" />
<glyph unicode="&#xda;" horiz-adv-x="1607" d="M74 1352v82h477v-82h-195v-826q0 -178 70 -288q56 -86 153 -132.5t224 -46.5q129 0 228 48.5t153 138.5q67 115 67 284v822h-194v82h477v-82h-195v-830q0 -195 -84 -329q-68 -105 -184.5 -161.5t-265.5 -56.5q-152 0 -271.5 58t-187.5 164q-78 125 -78 325v830h-194z M725 1536l193 227h131l-213 -227h-111z" />
<glyph unicode="&#xdb;" horiz-adv-x="1607" d="M74 1352v82h477v-82h-195v-826q0 -178 70 -288q56 -86 153 -132.5t224 -46.5q129 0 228 48.5t153 138.5q67 115 67 284v822h-194v82h477v-82h-195v-830q0 -195 -84 -329q-68 -105 -184.5 -161.5t-265.5 -56.5q-152 0 -271.5 58t-187.5 164q-78 125 -78 325v830h-194z M578 1536l163 227h123l164 -227h-108l-115 164h-4l-115 -164h-108z" />
<glyph unicode="&#xdc;" horiz-adv-x="1607" d="M74 1352v82h477v-82h-195v-826q0 -178 70 -288q56 -86 153 -132.5t224 -46.5q129 0 228 48.5t153 138.5q67 115 67 284v822h-194v82h477v-82h-195v-830q0 -195 -84 -329q-68 -105 -184.5 -161.5t-265.5 -56.5q-152 0 -271.5 58t-187.5 164q-78 125 -78 325v830h-194z M575 1614v149h111v-149h-111zM920 1614v149h110v-149h-110z" />
<glyph unicode="&#xdd;" horiz-adv-x="1300" d="M20 1352v82h418v-82h-170l353 -588l18 -33q4 -6 8 -18h4l8 16l21 35l354 588h-170v82h416v-82h-145l-441 -729v-541h195v-82h-477v82h194v541l-440 729h-146zM573 1536l193 227h131l-213 -227h-111z" />
<glyph unicode="&#xde;" horiz-adv-x="1294" d="M109 0v82h194v1270h-194v82h477v-82h-195v-185h383q193 0 314.5 -112.5t121.5 -304.5t-123 -307t-317 -115h-379v-246h195v-82h-477zM391 410h379q160 0 254 90t94 250q0 159 -93.5 247t-254.5 88h-379v-675z" />
<glyph unicode="&#xdf;" horiz-adv-x="1206" d="M57 0v80h185v1010q0 87 33.5 158.5t88.5 116t123 69t140 24.5q151 0 240 -85t89 -197q0 -62 -25.5 -116t-62 -92t-72.5 -72t-61.5 -70t-25.5 -72q0 -30 24 -60.5t62 -57.5t84 -56t92 -62.5t84 -70t62 -84.5t24 -101q0 -132 -92.5 -204t-223.5 -72q-118 0 -231 37 q-40 13 -84 34v95q58 -30 88 -41q98 -41 229 -41q95 0 159.5 49t64.5 143q0 44 -24 84t-62 71t-84.5 61t-92.5 59.5t-84 60t-62 70t-24 82.5q0 51 25.5 97t62 82t73 71.5t62 81t25.5 94.5q0 76 -64.5 137t-178.5 61q-117 0 -206 -79.5t-89 -211.5v-1083h-271z" />
<glyph unicode="&#xe0;" horiz-adv-x="1093" d="M86 279q0 55 16.5 101.5t43 79.5t67 59.5t80 43.5t92.5 29.5t93.5 18.5t93 9.5t81.5 4t68 0.5h67v45q0 297 -272 297q-109 0 -217 -49q-32 -14 -84 -52l-49 70q38 32 92 57q107 56 260 56q356 0 356 -377v-547q0 -45 46 -45h122v-80h-135q-63 0 -91 26.5t-28 86.5v22 q0 28 5 68l4 24h-4q-26 -68 -80 -125q-115 -127 -283 -127q-64 0 -123.5 18t-109.5 53.5t-80.5 95.5t-30.5 137zM176 289q0 -97 67.5 -165.5t186.5 -68.5q69 0 128.5 25.5t101 68.5t71 99t43.5 117.5t14 123.5v56h-65h-13q-19 -1 -47 0t-64 -2t-75.5 -6t-80.5 -12.5 t-79.5 -21t-72.5 -32t-59.5 -45t-40.5 -60t-15 -77.5zM270 1434h131l193 -228h-111z" />
<glyph unicode="&#xe1;" horiz-adv-x="1093" d="M86 279q0 55 16.5 101.5t43 79.5t67 59.5t80 43.5t92.5 29.5t93.5 18.5t93 9.5t81.5 4t68 0.5h67v45q0 297 -272 297q-109 0 -217 -49q-32 -14 -84 -52l-49 70q38 32 92 57q107 56 260 56q356 0 356 -377v-547q0 -45 46 -45h122v-80h-135q-63 0 -91 26.5t-28 86.5v22 q0 28 5 68l4 24h-4q-26 -68 -80 -125q-115 -127 -283 -127q-64 0 -123.5 18t-109.5 53.5t-80.5 95.5t-30.5 137zM176 289q0 -97 67.5 -165.5t186.5 -68.5q69 0 128.5 25.5t101 68.5t71 99t43.5 117.5t14 123.5v56h-65h-13q-19 -1 -47 0t-64 -2t-75.5 -6t-80.5 -12.5 t-79.5 -21t-72.5 -32t-59.5 -45t-40.5 -60t-15 -77.5zM440 1206l193 228h131l-213 -228h-111z" />
<glyph unicode="&#xe2;" horiz-adv-x="1093" d="M86 279q0 55 16.5 101.5t43 79.5t67 59.5t80 43.5t92.5 29.5t93.5 18.5t93 9.5t81.5 4t68 0.5h67v45q0 297 -272 297q-109 0 -217 -49q-32 -14 -84 -52l-49 70q38 32 92 57q107 56 260 56q356 0 356 -377v-547q0 -45 46 -45h122v-80h-135q-63 0 -91 26.5t-28 86.5v22 q0 28 5 68l4 24h-4q-26 -68 -80 -125q-115 -127 -283 -127q-64 0 -123.5 18t-109.5 53.5t-80.5 95.5t-30.5 137zM176 289q0 -97 67.5 -165.5t186.5 -68.5q69 0 128.5 25.5t101 68.5t71 99t43.5 117.5t14 123.5v56h-65h-13q-19 -1 -47 0t-64 -2t-75.5 -6t-80.5 -12.5 t-79.5 -21t-72.5 -32t-59.5 -45t-40.5 -60t-15 -77.5zM293 1206l164 228h123l163 -228h-108l-115 164h-4l-115 -164h-108z" />
<glyph unicode="&#xe3;" horiz-adv-x="1093" d="M86 279q0 55 16.5 101.5t43 79.5t67 59.5t80 43.5t92.5 29.5t93.5 18.5t93 9.5t81.5 4t68 0.5h67v45q0 297 -272 297q-109 0 -217 -49q-32 -14 -84 -52l-49 70q38 32 92 57q107 56 260 56q356 0 356 -377v-547q0 -45 46 -45h122v-80h-135q-63 0 -91 26.5t-28 86.5v22 q0 28 5 68l4 24h-4q-26 -68 -80 -125q-115 -127 -283 -127q-64 0 -123.5 18t-109.5 53.5t-80.5 95.5t-30.5 137zM176 289q0 -97 67.5 -165.5t186.5 -68.5q69 0 128.5 25.5t101 68.5t71 99t43.5 117.5t14 123.5v56h-65h-13q-19 -1 -47 0t-64 -2t-75.5 -6t-80.5 -12.5 t-79.5 -21t-72.5 -32t-59.5 -45t-40.5 -60t-15 -77.5zM215 1212q0 222 172 222q43 0 77.5 -15t56 -37t41 -44t41.5 -37t46 -15q84 0 84 141h90q0 -221 -172 -221q-43 0 -77.5 15t-56 37t-40.5 44t-41 37t-47 15q-84 0 -84 -142h-90z" />
<glyph unicode="&#xe4;" horiz-adv-x="1093" d="M86 279q0 55 16.5 101.5t43 79.5t67 59.5t80 43.5t92.5 29.5t93.5 18.5t93 9.5t81.5 4t68 0.5h67v45q0 297 -272 297q-109 0 -217 -49q-32 -14 -84 -52l-49 70q38 32 92 57q107 56 260 56q356 0 356 -377v-547q0 -45 46 -45h122v-80h-135q-63 0 -91 26.5t-28 86.5v22 q0 28 5 68l4 24h-4q-26 -68 -80 -125q-115 -127 -283 -127q-64 0 -123.5 18t-109.5 53.5t-80.5 95.5t-30.5 137zM176 289q0 -97 67.5 -165.5t186.5 -68.5q69 0 128.5 25.5t101 68.5t71 99t43.5 117.5t14 123.5v56h-65h-13q-19 -1 -47 0t-64 -2t-75.5 -6t-80.5 -12.5 t-79.5 -21t-72.5 -32t-59.5 -45t-40.5 -60t-15 -77.5zM291 1284v150h110v-150h-110zM635 1284v150h110v-150h-110z" />
<glyph unicode="&#xe5;" horiz-adv-x="1093" d="M86 279q0 55 16.5 101.5t43 79.5t67 59.5t80 43.5t92.5 29.5t93.5 18.5t93 9.5t81.5 4t68 0.5h67v45q0 297 -272 297q-109 0 -217 -49q-32 -14 -84 -52l-49 70q38 32 92 57q107 56 260 56q356 0 356 -377v-547q0 -45 46 -45h122v-80h-135q-63 0 -91 26.5t-28 86.5v22 q0 28 5 68l4 24h-4q-26 -68 -80 -125q-115 -127 -283 -127q-64 0 -123.5 18t-109.5 53.5t-80.5 95.5t-30.5 137zM176 289q0 -97 67.5 -165.5t186.5 -68.5q69 0 128.5 25.5t101 68.5t71 99t43.5 117.5t14 123.5v56h-65h-13q-19 -1 -47 0t-64 -2t-75.5 -6t-80.5 -12.5 t-79.5 -21t-72.5 -32t-59.5 -45t-40.5 -60t-15 -77.5zM367 1321q0 66 44 110t107 44q66 0 111 -44t45 -110q0 -63 -45 -106.5t-111 -43.5q-63 0 -107 43.5t-44 106.5zM446 1321q0 -32 20 -53t52 -21q35 0 55.5 20.5t20.5 53.5q0 37 -20.5 58.5t-55.5 21.5q-32 0 -52 -21.5 t-20 -58.5z" />
<glyph unicode="&#xe6;" horiz-adv-x="1783" d="M90 272q0 55 14 100.5t35.5 78.5t57.5 59t70 43t84 29t88.5 18t94 9.5t89.5 4t86 0.5h82v45q0 161 -78 234.5t-211 73.5q-113 0 -213 -49q-32 -14 -80 -52l-49 70q34 32 90 57q107 56 256 56q294 0 352 -240h4q62 119 167 179.5t239 60.5q130 0 225.5 -63.5t141.5 -165.5 t46 -228q0 -23 -2 -37q-2 -6 -2 -20h-800q0 -224 116 -351t301 -127q124 0 234 66q49 26 84 65l47 -71q-44 -41 -98 -70q-130 -72 -267 -72q-160 0 -282.5 83.5t-177.5 230.5h-5q-4 -22 -16.5 -54.5t-43.5 -79.5t-72 -85.5t-108.5 -66.5t-146.5 -28q-148 0 -250 78t-102 219 zM180 279q0 -92 69.5 -158t192.5 -66q80 0 148 39t111 101.5t66.5 139t23.5 154.5v46h-142q-48 0 -86 -1.5t-89 -7.5t-89.5 -16t-78.5 -29.5t-66.5 -45.5t-43 -66t-16.5 -90zM885 614h706q-4 91 -32.5 161t-75 110.5t-102 61t-119.5 20.5q-147 0 -249.5 -90t-127.5 -263z " />
<glyph unicode="&#xe7;" horiz-adv-x="1114" d="M104 510q0 120 42.5 222t115 171t168.5 107.5t203 38.5q47 0 103.5 -11t116.5 -33.5t100 -66.5t40 -102v-99h-86v80q0 46 -49 81.5t-110 51t-115 15.5q-185 0 -311.5 -125.5t-126.5 -329.5q0 -200 127 -325.5t311 -125.5q148 0 256 74q52 34 86 74l45 -72 q-42 -41 -94 -76q-124 -77 -275 -84l-18 -98q60 -6 99.5 -45t39.5 -94q0 -80 -53 -118t-133 -38q-34 0 -66 4l-24 4v78l24 -6q28 -4 60 -4q106 0 106 76q0 38 -33 58t-90 20h-24l34 168q-201 18 -335 163.5t-134 366.5z" />
<glyph unicode="&#xe8;" horiz-adv-x="1124" d="M106 510q0 125 41 228.5t110 170.5t158.5 103.5t188.5 36.5q102 0 183.5 -38t131.5 -103t76.5 -148t26.5 -178q0 -27 -2 -37q-2 -6 -2 -19h-821q0 -215 126 -341t312 -126q123 0 233 66q46 25 84 63l47 -71q-44 -41 -98 -70q-130 -72 -266 -72q-108 0 -204.5 38 t-168.5 106.5t-114 170t-42 220.5zM203 606h729q-7 180 -99.5 271.5t-230.5 91.5q-148 0 -259.5 -95t-139.5 -268zM360 1434h132l192 -228h-111z" />
<glyph unicode="&#xe9;" horiz-adv-x="1124" d="M106 510q0 125 41 228.5t110 170.5t158.5 103.5t188.5 36.5q102 0 183.5 -38t131.5 -103t76.5 -148t26.5 -178q0 -27 -2 -37q-2 -6 -2 -19h-821q0 -215 126 -341t312 -126q123 0 233 66q46 25 84 63l47 -71q-44 -41 -98 -70q-130 -72 -266 -72q-108 0 -204.5 38 t-168.5 106.5t-114 170t-42 220.5zM203 606h729q-7 180 -99.5 271.5t-230.5 91.5q-148 0 -259.5 -95t-139.5 -268zM530 1206l193 228h131l-213 -228h-111z" />
<glyph unicode="&#xea;" horiz-adv-x="1124" d="M106 510q0 125 41 228.5t110 170.5t158.5 103.5t188.5 36.5q102 0 183.5 -38t131.5 -103t76.5 -148t26.5 -178q0 -27 -2 -37q-2 -6 -2 -19h-821q0 -215 126 -341t312 -126q123 0 233 66q46 25 84 63l47 -71q-44 -41 -98 -70q-130 -72 -266 -72q-108 0 -204.5 38 t-168.5 106.5t-114 170t-42 220.5zM203 606h729q-7 180 -99.5 271.5t-230.5 91.5q-148 0 -259.5 -95t-139.5 -268zM383 1206l164 228h123l164 -228h-109l-115 164h-4l-114 -164h-109z" />
<glyph unicode="&#xeb;" horiz-adv-x="1124" d="M106 510q0 125 41 228.5t110 170.5t158.5 103.5t188.5 36.5q102 0 183.5 -38t131.5 -103t76.5 -148t26.5 -178q0 -27 -2 -37q-2 -6 -2 -19h-821q0 -215 126 -341t312 -126q123 0 233 66q46 25 84 63l47 -71q-44 -41 -98 -70q-130 -72 -266 -72q-108 0 -204.5 38 t-168.5 106.5t-114 170t-42 220.5zM203 606h729q-7 180 -99.5 271.5t-230.5 91.5q-148 0 -259.5 -95t-139.5 -268zM381 1284v150h111v-150h-111zM725 1284v150h111v-150h-111z" />
<glyph unicode="&#xec;" horiz-adv-x="575" d="M49 1434h131l193 -228h-111zM90 0v80h164v864h-164v80h250v-944h164v-80h-414z" />
<glyph unicode="&#xed;" horiz-adv-x="575" d="M90 0v80h164v864h-164v80h250v-944h164v-80h-414zM219 1206l193 228h131l-213 -228h-111z" />
<glyph unicode="&#xee;" horiz-adv-x="575" d="M72 1206l164 228h122l164 -228h-108l-115 164h-4l-115 -164h-108zM90 0v80h164v864h-164v80h250v-944h164v-80h-414z" />
<glyph unicode="&#xef;" horiz-adv-x="575" d="M86 1284v150h111v-150h-111zM90 0v80h164v864h-164v80h250v-944h164v-80h-414zM381 1284v150h111v-150h-111z" />
<glyph unicode="&#xf0;" horiz-adv-x="1200" d="M109 471q0 75 19 145t59.5 132.5t98 109t139 73.5t177.5 27q145 0 250 -67q44 -27 82 -68h4q-78 236 -281 375l-352 -164l-35 76l299 139q-124 66 -313 117l25 78q231 -58 385 -152l252 119l34 -76l-207 -96q146 -111 233 -283t87 -403q0 -83 -18 -164t-58 -156 t-96.5 -132t-140 -91.5t-183.5 -34.5q-86 0 -161 28t-129 76t-93 111t-58 135t-19 146zM199 471q0 -79 25.5 -153t72 -132.5t118.5 -93.5t158 -35q81 0 149 29.5t113.5 77.5t78 111.5t47 130t14.5 133.5q0 148 -104 243t-271 95q-98 0 -176.5 -34.5t-126.5 -92.5t-73 -129.5 t-25 -149.5z" />
<glyph unicode="&#xf1;" horiz-adv-x="1353" d="M82 944v80h162q63 0 90.5 -26.5t27.5 -86.5v-67q0 -32 -4 -60l-4 -24h4q14 40 47.5 86.5t86 93.5t132 78t169.5 31q98 0 165.5 -28t104 -83t52 -124.5t15.5 -164.5v-569h185v-80h-271v618q0 51 -3 88.5t-11 80.5t-25.5 72.5t-44.5 55t-69 38t-98 12.5q-89 0 -169.5 -37 t-137.5 -99t-90.5 -146t-33.5 -175v-428h185v-80h-455v80h184v819q0 45 -45 45h-149zM424 1212q0 222 172 222q43 0 77.5 -15t56 -37t41 -44t41.5 -37t46 -15q84 0 84 141h90q0 -221 -172 -221q-43 0 -77.5 15t-56 37t-40.5 44t-41 37t-47 15q-84 0 -84 -142h-90z" />
<glyph unicode="&#xf2;" horiz-adv-x="1265" d="M102 518q0 147 71 269t193 192t267 70t266.5 -70t192.5 -192t71 -269q0 -150 -71 -275t-192.5 -196.5t-266.5 -71.5q-108 0 -206 42.5t-169.5 114.5t-113.5 173t-42 213zM193 518q0 -195 128 -327t312 -132t312 132t128 327q0 189 -128 318t-312 129t-312 -129t-128 -318 zM385 1434h131l193 -228h-111z" />
<glyph unicode="&#xf3;" horiz-adv-x="1265" d="M102 518q0 147 71 269t193 192t267 70t266.5 -70t192.5 -192t71 -269q0 -150 -71 -275t-192.5 -196.5t-266.5 -71.5q-108 0 -206 42.5t-169.5 114.5t-113.5 173t-42 213zM193 518q0 -195 128 -327t312 -132t312 132t128 327q0 189 -128 318t-312 129t-312 -129t-128 -318 zM555 1206l193 228h131l-213 -228h-111z" />
<glyph unicode="&#xf4;" horiz-adv-x="1265" d="M102 518q0 147 71 269t193 192t267 70t266.5 -70t192.5 -192t71 -269q0 -150 -71 -275t-192.5 -196.5t-266.5 -71.5q-108 0 -206 42.5t-169.5 114.5t-113.5 173t-42 213zM193 518q0 -195 128 -327t312 -132t312 132t128 327q0 189 -128 318t-312 129t-312 -129t-128 -318 zM408 1206l163 228h123l164 -228h-108l-115 164h-4l-115 -164h-108z" />
<glyph unicode="&#xf5;" horiz-adv-x="1265" d="M102 518q0 147 71 269t193 192t267 70t266.5 -70t192.5 -192t71 -269q0 -150 -71 -275t-192.5 -196.5t-266.5 -71.5q-108 0 -206 42.5t-169.5 114.5t-113.5 173t-42 213zM193 518q0 -195 128 -327t312 -132t312 132t128 327q0 189 -128 318t-312 129t-312 -129t-128 -318 zM330 1212q0 222 172 222q43 0 77.5 -15t56 -37t41 -44t41.5 -37t46 -15q84 0 84 141h90q0 -221 -172 -221q-43 0 -77.5 15t-56 37t-40.5 44t-41 37t-47 15q-84 0 -84 -142h-90z" />
<glyph unicode="&#xf6;" horiz-adv-x="1265" d="M102 518q0 147 71 269t193 192t267 70t266.5 -70t192.5 -192t71 -269q0 -150 -71 -275t-192.5 -196.5t-266.5 -71.5q-108 0 -206 42.5t-169.5 114.5t-113.5 173t-42 213zM193 518q0 -195 128 -327t312 -132t312 132t128 327q0 189 -128 318t-312 129t-312 -129t-128 -318 zM406 1284v150h110v-150h-110zM750 1284v150h110v-150h-110z" />
<glyph unicode="&#xf7;" horiz-adv-x="1228" d="M127 539v82h975v-82h-975zM555 156v120h117v-120h-117zM555 883v121h117v-121h-117z" />
<glyph unicode="&#xf8;" horiz-adv-x="1265" d="M102 518q0 147 71 269t193 192t267 70q155 0 287 -82l77 108l62 -47l-78 -108q84 -74 133 -179t49 -223q0 -150 -71 -275t-192.5 -196.5t-266.5 -71.5q-142 0 -271 76l-75 -106l-62 47l74 104q-92 75 -144.5 185t-52.5 237zM193 518q0 -105 41.5 -195.5t113.5 -156.5 l522 731q-113 68 -237 68q-184 0 -312 -129t-128 -318zM412 121q100 -62 221 -62q184 0 312 132t128 327q0 97 -38 183t-105 147z" />
<glyph unicode="&#xf9;" horiz-adv-x="1312" d="M37 944v80h280v-618q0 -62 4 -106t19 -93t41.5 -79t74 -49.5t113.5 -19.5q124 0 221.5 66.5t148 172t50.5 226.5v420h-194v80h280v-901q0 -45 45 -45h123v-78h-135q-63 0 -91 26.5t-28 86.5v57q0 45 2 59q2 8 2 25h-4q-14 -41 -46 -86t-83 -90t-127.5 -74t-163.5 -29 q-183 0 -260.5 98.5t-77.5 301.5v569h-194zM385 1434h131l193 -228h-111z" />
<glyph unicode="&#xfa;" horiz-adv-x="1312" d="M37 944v80h280v-618q0 -62 4 -106t19 -93t41.5 -79t74 -49.5t113.5 -19.5q124 0 221.5 66.5t148 172t50.5 226.5v420h-194v80h280v-901q0 -45 45 -45h123v-78h-135q-63 0 -91 26.5t-28 86.5v57q0 45 2 59q2 8 2 25h-4q-14 -41 -46 -86t-83 -90t-127.5 -74t-163.5 -29 q-183 0 -260.5 98.5t-77.5 301.5v569h-194zM555 1206l193 228h131l-213 -228h-111z" />
<glyph unicode="&#xfb;" horiz-adv-x="1312" d="M37 944v80h280v-618q0 -62 4 -106t19 -93t41.5 -79t74 -49.5t113.5 -19.5q124 0 221.5 66.5t148 172t50.5 226.5v420h-194v80h280v-901q0 -45 45 -45h123v-78h-135q-63 0 -91 26.5t-28 86.5v57q0 45 2 59q2 8 2 25h-4q-14 -41 -46 -86t-83 -90t-127.5 -74t-163.5 -29 q-183 0 -260.5 98.5t-77.5 301.5v569h-194zM408 1206l163 228h123l164 -228h-108l-115 164h-4l-115 -164h-108z" />
<glyph unicode="&#xfc;" horiz-adv-x="1312" d="M37 944v80h280v-618q0 -62 4 -106t19 -93t41.5 -79t74 -49.5t113.5 -19.5q124 0 221.5 66.5t148 172t50.5 226.5v420h-194v80h280v-901q0 -45 45 -45h123v-78h-135q-63 0 -91 26.5t-28 86.5v57q0 45 2 59q2 8 2 25h-4q-14 -41 -46 -86t-83 -90t-127.5 -74t-163.5 -29 q-183 0 -260.5 98.5t-77.5 301.5v569h-194zM406 1284v150h110v-150h-110zM750 1284v150h110v-150h-110z" />
<glyph unicode="&#xfd;" horiz-adv-x="1148" d="M16 944v80h396v-80h-162l305 -780q7 -17 12 -41l4 -17h4q0 2 5 17q3 5 7 20t7 21l305 780h-162v80h396v-80h-142l-463 -1159q-39 -98 -108.5 -156.5t-163.5 -58.5q-59 0 -119 27q-26 13 -47 28l39 76q16 -16 37 -25q39 -24 90 -24q67 0 119.5 52.5t83.5 131.5l69 168 l-372 940h-140zM510 1206l192 228h132l-213 -228h-111z" />
<glyph unicode="&#xfe;" horiz-adv-x="1198" d="M10 -330h185v1684h-185v80h271v-523v-59q0 -17 -2 -23h4q28 64 75 111q109 109 289 109q202 0 322.5 -148t120.5 -389q0 -242 -127.5 -389.5t-327.5 -147.5q-166 0 -277 111q-50 50 -77 111h-5q0 -10 3 -25q2 -16 2 -66v-436h184v-80h-455v80zM279 510q0 -69 15 -134.5 t45 -123t71.5 -101t99.5 -69t125 -25.5q157 0 260.5 123t103.5 332q0 205 -99.5 329t-256.5 124q-73 0 -136.5 -26.5t-115.5 -79.5t-82 -142.5t-30 -206.5z" />
<glyph unicode="&#xff;" horiz-adv-x="1148" d="M16 944v80h396v-80h-162l305 -780q7 -17 12 -41l4 -17h4q0 2 5 17q3 5 7 20t7 21l305 780h-162v80h396v-80h-142l-463 -1159q-39 -98 -108.5 -156.5t-163.5 -58.5q-59 0 -119 27q-26 13 -47 28l39 76q16 -16 37 -25q39 -24 90 -24q67 0 119.5 52.5t83.5 131.5l69 168 l-372 940h-140zM360 1284v150h111v-150h-111zM705 1284v150h110v-150h-110z" />
<glyph unicode="&#x152;" horiz-adv-x="1943" d="M123 717q0 154 53.5 289.5t147.5 234.5t229 156t291 57q36 0 122.5 -10t114.5 -10h701v-267h-86v185h-621v-588h572v-82h-572v-600h662v186h86v-268h-740q-27 0 -114.5 -10t-124.5 -10q-156 0 -291 56.5t-229 155t-147.5 234.5t-53.5 291zM215 717q0 -185 77.5 -333.5 t221.5 -234.5t330 -86q60 0 100 9l43 8v1274l-43 8q-36 8 -100 8q-186 0 -330 -86t-221.5 -234.5t-77.5 -332.5z" />
<glyph unicode="&#x153;" horiz-adv-x="2091" d="M104 510q0 120 42.5 222t115 171t168.5 107.5t203 38.5q158 0 287 -82.5t192 -223.5h4q59 146 181.5 226t273.5 80q102 0 183.5 -38t131.5 -103t76.5 -148t26.5 -178q0 -27 -2 -37q-2 -6 -2 -19h-822q5 -149 66.5 -256.5t157.5 -159t215 -51.5q123 0 233 66q46 25 84 63 l47 -71q-44 -41 -98 -70q-130 -72 -266 -72q-163 0 -293 81.5t-191 226.5h-4q-62 -145 -191 -226.5t-290 -81.5q-107 0 -203 38.5t-168.5 106.5t-115 169.5t-42.5 220.5zM195 510q0 -200 127 -325.5t311 -125.5q185 0 312.5 127t127.5 334q0 131 -61 234t-161 157t-218 54 q-184 0 -311 -127.5t-127 -327.5zM1169 606h729q-7 180 -99 271.5t-230 91.5q-148 0 -260 -95t-140 -268z" />
<glyph unicode="&#x178;" horiz-adv-x="1300" d="M20 1352v82h418v-82h-170l353 -588l18 -33q4 -6 8 -18h4l8 16l21 35l354 588h-170v82h416v-82h-145l-441 -729v-541h195v-82h-477v82h194v541l-440 729h-146zM424 1614v149h111v-149h-111zM768 1614v149h111v-149h-111z" />
<glyph unicode="&#x2c6;" horiz-adv-x="1040" d="M295 1536l164 227h123l163 -227h-108l-115 164h-4l-115 -164h-108z" />
<glyph unicode="&#x2dc;" horiz-adv-x="1042" d="M217 1542q0 221 172 221q43 0 77.5 -15t56 -36.5t41 -43.5t41.5 -37t46 -15q84 0 84 141h90q0 -221 -172 -221q-43 0 -77.5 15t-56 37t-40.5 43.5t-41 36.5t-47 15q-84 0 -84 -141h-90z" />
<glyph unicode="&#x2000;" horiz-adv-x="902" />
<glyph unicode="&#x2001;" horiz-adv-x="1804" />
<glyph unicode="&#x2002;" horiz-adv-x="902" />
<glyph unicode="&#x2003;" horiz-adv-x="1804" />
<glyph unicode="&#x2004;" horiz-adv-x="601" />
<glyph unicode="&#x2005;" horiz-adv-x="451" />
<glyph unicode="&#x2006;" horiz-adv-x="300" />
<glyph unicode="&#x2007;" horiz-adv-x="300" />
<glyph unicode="&#x2008;" horiz-adv-x="225" />
<glyph unicode="&#x2009;" horiz-adv-x="360" />
<glyph unicode="&#x200a;" horiz-adv-x="100" />
<glyph unicode="&#x2010;" horiz-adv-x="1081" d="M258 539v82h565v-82h-565z" />
<glyph unicode="&#x2011;" horiz-adv-x="1081" d="M258 539v82h565v-82h-565z" />
<glyph unicode="&#x2012;" horiz-adv-x="1081" d="M258 539v82h565v-82h-565z" />
<glyph unicode="&#x2013;" horiz-adv-x="1490" d="M258 539v82h975v-82h-975z" />
<glyph unicode="&#x2014;" horiz-adv-x="1900" d="M258 539v82h1384v-82h-1384z" />
<glyph unicode="&#x2018;" horiz-adv-x="417" d="M119 1059l119 391h79l-92 -391h-106z" />
<glyph unicode="&#x2019;" horiz-adv-x="409" d="M123 1059l92 391h107l-119 -391h-80z" />
<glyph unicode="&#x201a;" horiz-adv-x="479" d="M100 -266l93 391h106l-119 -391h-80z" />
<glyph unicode="&#x201c;" horiz-adv-x="643" d="M119 1059l119 391h79l-92 -391h-106zM344 1059l119 391h80l-92 -391h-107z" />
<glyph unicode="&#x201d;" horiz-adv-x="634" d="M123 1059l92 391h107l-119 -391h-80zM348 1059l92 391h107l-119 -391h-80z" />
<glyph unicode="&#x201e;" horiz-adv-x="704" d="M100 -266l93 391h106l-119 -391h-80zM326 -266l92 391h106l-118 -391h-80z" />
<glyph unicode="&#x2022;" horiz-adv-x="802" d="M131 596q0 110 80 190t190 80t190.5 -80t80.5 -190t-80.5 -190t-190.5 -80t-190 80t-80 190z" />
<glyph unicode="&#x2026;" horiz-adv-x="1357" d="M180 0v129h125v-129h-125zM616 0v129h125v-129h-125zM1053 0v129h125v-129h-125z" />
<glyph unicode="&#x202f;" horiz-adv-x="360" />
<glyph unicode="&#x2039;" horiz-adv-x="688" d="M111 578l335 421h109l-336 -421l336 -420h-109z" />
<glyph unicode="&#x203a;" horiz-adv-x="688" d="M133 158l336 420l-336 421h109l336 -421l-336 -420h-109z" />
<glyph unicode="&#x205f;" horiz-adv-x="451" />
<glyph unicode="&#x20ac;" horiz-adv-x="1214" d="M102 539v82h111q-11 90 2 223h-113v82h127q58 235 243 383.5t435 148.5q76 0 131 -10l52 -12l-21 -86l-47 12q-52 10 -115 10q-216 0 -372 -122t-211 -324h669l-16 -82h-670q-14 -100 -4 -223h635l-14 -82h-609q46 -213 207.5 -345.5t384.5 -132.5q47 0 129 15l51 12 l25 -84l-59 -14q-73 -15 -146 -15q-258 0 -446 157.5t-238 406.5h-121z" />
<glyph unicode="&#x2122;" horiz-adv-x="1914" d="M63 1356v78h738v-78h-330v-815h-80v815h-328zM885 541l71 893h72l258 -553q14 -26 21 -56q1 -6 4 -14.5t4 -11.5h4q1 3 4 11.5t4 14.5l21 56l258 553h71l72 -893h-78l-57 671v41q0 11 2 17h-4l-260 -561h-70l-260 561h-4q2 -6 2 -17v-41l-57 -671h-78z" />
<glyph unicode="&#x25fc;" horiz-adv-x="1024" d="M0 0v1024h1024v-1024h-1024z" />
</font>
</defs>
</svg>
